<?xml version="1.0" standalone="no"?>
<!DOCTYPE svg PUBLIC "-//W3C//DTD SVG 1.1//EN" "http://www.w3.org/Graphics/SVG/1.1/DTD/svg11.dtd" >
<svg xmlns="http://www.w3.org/2000/svg">
<metadata></metadata>
<defs>
<font id="mathleteskinny" horiz-adv-x="276" >
<font-face units-per-em="1000" ascent="800" descent="-200" />
<missing-glyph horiz-adv-x="300" />
<glyph horiz-adv-x="0" />
<glyph horiz-adv-x="0" />
<glyph horiz-adv-x="333" />
<glyph unicode="&#xd;" horiz-adv-x="333" />
<glyph unicode=" "  horiz-adv-x="300" />
<glyph unicode="&#x09;" horiz-adv-x="300" />
<glyph unicode="&#xa0;" horiz-adv-x="300" />
<glyph unicode="!" horiz-adv-x="140" d="M37 27q2 12 13.5 20.5t27.5 9.5q5 1 10 -3t5 -10q1 -4 -0.5 -12.5t-10.5 -17.5t-26 -9q-9 0 -14.5 6.5t-4.5 15.5zM54 155v417q0 14 14 14t14 -14v-417q0 -14 -14 -14t-14 14z" />
<glyph unicode="&#x22;" horiz-adv-x="204" d="M33 509q0 33 4 56q1 9 8.5 11.5t14 -2t5.5 -13.5q-3 -16 -3 -53v-56q0 -14 -14 -14t-14 14v27q-1 12 -1 30zM128 571q-2 13 14 15q14 0 14 -15q1 -27 1 -116q0 -14 -14 -14t-14 14q0 89 -1 116z" />
<glyph unicode="#" horiz-adv-x="386" d="M-23 283q0 6 4.5 10t10.5 3q21 -3 56 -1q19 0 27 16q6 14 12.5 32t9.5 26q5 18 0.5 21t-19.5 1q-30 -3 -43 -9q-14 -4 -18.5 9.5t8.5 18.5q26 9 71 13q15 1 19 8l3 9q9 30 15 48q5 13 18.5 8.5t9.5 -18.5q-8 -20 -10 -29q-4 -15 0 -19t17 -3h5q8 1 25.5 1h27.5q4 0 7 0.5 t5.5 1.5t3.5 1.5t2.5 2.5t2 3t1.5 4t1 4q9 21 11 30q1 2 2.5 8t2.5 9t4.5 5.5t9.5 2.5q4 -1 7 -3t4 -5t1 -6.5t-1 -8.5t-1.5 -8.5t-2 -9t-2.5 -7.5q-4 -16 -2.5 -19t18.5 -3h25q14 2 16 -13q0 -15 -14 -15q-4 0 -10 -0.5t-17 -1t-20 -0.5q-17 0 -17 -1l-23 -62 q-6 -14 -3.5 -18.5t20.5 -3.5q4 0 13.5 1.5t15 1.5t12 -0.5t10 -3.5t4.5 -9q0 -15 -14 -15q-24 -2 -61 -6q-17 -1 -22 -18q-11 -34 -29 -98q-2 -13 -17 -11q-13 2 -11 17q10 40 23 79q5 18 2 21t-20 1q-35 -5 -60 -6q-16 -1 -20 -11q-24 -57 -28 -92q-1 -9 -8.5 -11.5t-14 2 t-5.5 13.5q3 29 19 73q8 21 -16 23q-16 0 -40 2q-6 0 -10 4.5t-3 10.5zM111 323q-5 -11 -0.5 -17.5t16.5 -5.5q6 1 24.5 2.5t30.5 3.5q9 1 13.5 4t5.5 4.5t4 8.5l19 54q3 18 0 20.5t-17 1.5q-10 0 -28.5 -0.5t-26.5 -1.5h-4.5t-4.5 -0.5t-3.5 -1.5t-3.5 -3l-2.5 -5t-3.5 -8 q-1 -4 -7.5 -23.5t-11.5 -32.5z" />
<glyph unicode="$" horiz-adv-x="334" d="M-2 396q-7 59 22 115t76 81q3 1 11.5 4.5t12 6t7.5 8t3 12.5q0 21 -2 59q-2 14 13 16q15 0 15 -14q2 -38 2 -60q1 -17 19 -21q61 -24 82 -109q2 -15 -10 -17q-16 -2 -18 11q-17 66 -53 83q-9 7 -13.5 3t-4.5 -21q2 -77 3 -193q0 -8 6.5 -14.5t11.5 -7.5h1 q57 -18 82.5 -80.5t22.5 -139.5q-2 -55 -29.5 -89t-69.5 -40q-20 -3 -19 -21q1 -9 1 -27t1 -27q1 -6 -3 -10.5t-10 -4.5q-6 -1 -10.5 3t-4.5 10q-1 30 -3 63q-1 16 -17 22q-38 14 -63.5 47.5t-30.5 78.5q-1 9 5.5 13.5t14 2t8.5 -11.5q9 -63 57 -94q10 -8 17 -6.5t7 21.5 q0 32 -1.5 116.5t-1.5 131.5q0 20 -7 20q-34 2 -48 3.5t-29 6t-27 14.5q-23 20 -26 56zM26 398q2 -15 8.5 -25t13 -15t22.5 -8t25.5 -3.5t33.5 -1.5q5 0 5 20q0 136 -2 186q0 15 -5.5 19t-10.5 0l-6 -3q-40 -22 -64.5 -69.5t-19.5 -99.5zM163 289q2 -190 4 -261q0 -3 1.5 -5 t4 -3.5t6 -1.5t8.5 1q31 5 50.5 31t21.5 70q2 69 -19 123t-66 67q-1 0 -2.5 1t-2.5 1q-6 0 -6 -23z" />
<glyph unicode="%" horiz-adv-x="328" d="M3 12q122 340 251 575q5 8 12.5 8t12.5 -7t1 -15q-131 -246 -249 -571q-5 -13 -18.5 -8.5t-9.5 18.5zM23 518q6 24 24.5 37.5t44.5 8.5q5 -1 22 -17q11 -14 13.5 -38.5t-5.5 -38.5q-9 -21 -28.5 -27.5t-45.5 4.5q-18 9 -24.5 29.5t-0.5 41.5zM59 527q-11 -11 -10 -30 t11 -24q23 -11 32.5 1.5t5.5 29.5q-3 13 -14.5 23t-24.5 0zM141 90q20 29 37 30q19 4 24 2q8 -2 19 -13q30 -41 18 -70t-51 -33q-38 -3 -55 21t8 63zM165 74q-14 -22 -7.5 -31.5t28.5 -7.5t27 15.5t-14 40.5q-1 1 -7 1.5t-10 -0.5h-1l-4 -1z" />
<glyph unicode="&#x26;" horiz-adv-x="332" d="M22 264q12 19 23 31q12 13 0 26q-20 20 -24.5 57.5t3 76.5t24.5 77q44 101 106 82q23 -8 41 -32t24 -53q5 -31 -5 -53q-4 -8 -12 -8t-13 6t-1 14q9 17 0 46t-30.5 45.5t-42.5 0.5q-22 -17 -41.5 -61.5t-24.5 -89.5q-7 -82 32 -100q7 -3 24 -5h4q1 0 4 -0.5t4 -1.5 q7 0 9.5 -8.5t-1.5 -14.5q-3 -3 -8 -5h-15q-33 0 -54 -44q-20 -36 -18.5 -97t22.5 -95q15 -25 38 -32.5t44.5 1t40 25.5t29.5 38q20 40 14 113l-1 2q0 4 -25 0t-34 -6q-13 -2 -17 10.5t9 17.5q14 4 21 5l19 2q15 3 63 3q32 -1 32 -15t-14 -14h-5q-20 0 -20 -3 q8 -83 -16 -129q-15 -28 -40 -49.5t-52 -29.5q-70 -19 -110 45q-25 42 -27 111t21 111z" />
<glyph unicode="'" horiz-adv-x="78" d="M0 581q0 6 4.5 10t10.5 4q6 -1 10 -5.5t3 -10.5q-1 -13 1 -65t2 -54q0 -6 -4 -10t-10 -4t-10 4t-4 10q0 3 -2 55t-1 66z" />
<glyph unicode="(" horiz-adv-x="231" d="M38 252q0 68 12 132q32 167 115 201q8 4 14.5 -1.5t5.5 -13.5t-10 -11q-32 -14 -55 -51t-33.5 -85.5t-15 -89.5t-4.5 -81q-1 -54 2 -81t22 -67.5t60 -86.5q6 -6 2.5 -13.5t-10.5 -9t-14 4.5q-62 71 -77 121.5t-14 131.5z" />
<glyph unicode=")" horiz-adv-x="235" d="M24 553q-9 3 -10 11t5.5 13.5t14.5 1.5q18 -6 37 -21.5t29 -29.5l26 -35q55 -78 61 -163t-35 -162l-16 -32q-1 -3 -3.5 -7.5t-5 -8.5t-5.5 -9.5t-6 -10.5l-18 -32q-22 -36 -43 -68q-4 -8 -12.5 -7.5t-12 7t0.5 14.5q20 33 43 70q18 30 36 65q27 49 40 95q33 120 -48 233 q-29 41 -48 57q-14 13 -30 19z" />
<glyph unicode="*" horiz-adv-x="287" d="M36 517q1 5 6 8t11 2q10 -2 28 -8t26 -8q15 -4 17.5 -2t3.5 17q2 30 8 49q3 9 11.5 10t14 -4.5t2.5 -13.5q-4 -16 -6 -35q-1 -19 3 -22t20 5q13 7 40 16q9 3 15 -2.5t4.5 -13.5t-9.5 -10q-7 -3 -20 -8.5t-17 -7.5q-38 -16 -27 -36q18 -29 27 -43q5 -8 1 -15t-11.5 -7.5 t-13.5 6.5q-17 25 -20 31q-10 17 -14.5 17t-12.5 -17l-17 -33q-5 -8 -12.5 -8t-12.5 7t-1 15q22 40 28 51q5 10 6 14t-2.5 6.5t-13.5 6.5q-20 8 -51 15q-13 2 -11 18z" />
<glyph unicode="+" horiz-adv-x="298" d="M-4 297q-2 15 11 17q32 8 88 8q19 0 23.5 3.5t4.5 17.5q0 48 -3 99q-2 14 13 16q15 0 15 -14q4 -68 4 -102q0 -14 3.5 -17t16.5 -4q37 -2 65 -2q14 0 14 -14t-14 -14q-1 0 -23 1t-41 1q-17 0 -19 -2.5t-1 -18.5q2 -21 3.5 -55.5t2.5 -47.5q1 -5 -3 -10t-9 -5q-6 -1 -11 3 t-5 10q-2 16 -6 107q-1 14 -4 17t-17 3q-51 0 -91 -8q-15 -2 -17 11z" />
<glyph unicode="," horiz-adv-x="116" d="M21 18q-8 6 -6.5 14t8 11t14.5 -1q31 -22 32.5 -58.5t-16.5 -78.5q-5 -13 -18.5 -8.5t-9.5 18.5q15 43 15 66t-19 37z" />
<glyph unicode="-" horiz-adv-x="326" d="M15 279q58 10 174 5q72 -2 76 -2q14 0 14 -14t-14 -14q-8 0 -78 2q-113 3 -168 -5q-9 -1 -13.5 5.5t-2 14t11.5 8.5z" />
<glyph unicode="." horiz-adv-x="128" d="M21 9q-16 20 -4 39t44 16q7 0 10.5 -4.5t6.5 -12.5l2 -8q2 -4 1 -9q-4 -32 -25 -37t-35 16z" />
<glyph unicode="/" horiz-adv-x="281" d="M-15 -3q4 47 23 97l18 47q10 25 18 43q91 245 163 404q4 8 12 8.5t13 -6t1 -14.5q-62 -135 -163 -402q-4 -13 -17 -44l-19 -46q-17 -49 -21 -89q0 -6 -4.5 -10t-10.5 -3q-6 0 -10 4.5t-3 10.5z" />
<glyph unicode="0" d="M-21 351q12 183 97 256q39 31 70 21t51 -53q21 -43 24 -97q6 -63 7 -85q1 -31 1 -81q0 -147 -17 -218q-14 -60 -42 -86t-60 -27q-25 0 -48 20q-58 54 -78 243q-8 75 -5 107zM35 119q20 -71 47 -97q13 -12 28 -12q16 0 38 17q43 33 51 196q2 65 -1 183q0 20 -7.5 76 t-19.5 81q-15 31 -32.5 37t-44.5 -15q-46 -40 -68 -117t-19 -167.5t28 -181.5z" />
<glyph unicode="1" horiz-adv-x="236" d="M-15 -3q0 14 14 14h48q9 0 14 3.5t5 6.5l1 3q0 108 9 271q2 41 -7 226q-1 24 -7 25.5t-19 -16.5q-8 -10 -14 -20q-5 -8 -13.5 -6.5t-11.5 8t1 14.5q25 40 63 75q5 5 10 5q17 0 17 -20q0 -44 7 -145q5 -97 2 -148q-8 -142 -10 -276q0 -5 22 -4h59q14 0 14 -14t-14 -14 q-16 0 -88 -1t-88 -1q-14 0 -14 14z" />
<glyph unicode="2" d="M-4 8v6l2 4l5 13l16 38q26 61 26 63q20 50 65 126q21 38 33 60q60 113 43 183q-9 40 -36.5 59.5t-57.5 13.5q-32 -7 -49 -41.5t-8 -89.5q1 -9 -5.5 -13.5t-14 -2t-8.5 11.5q-10 65 12.5 109t66.5 54q42 9 79 -17.5t49 -77.5q20 -80 -45 -203q-34 -58 -73 -128 q-16 -31 -23 -54q-9 -17 -28 -64l-15 -37l4 -1h5q54 0 108 3q33 0 44 1h24q6 0 10 -4t4 -10t-4 -10t-10 -4h-24q-115 -5 -152 -5h-11q-4 0 -9.5 0.5t-9.5 1.5l-4 1q-9 4 -9 14z" />
<glyph unicode="3" horiz-adv-x="250" d="M-40 109q-1 6 3 10.5t10 5.5q6 0 10.5 -4t4.5 -10q3 -54 34 -81.5t69 -18.5q42 10 66.5 59t15.5 127q-4 33 -20 58t-42 37q-29 14 -36 15q-17 -2 -27 -1q-12 2 -13.5 14t10.5 20q3 2 7 3.5t6.5 2t6 1t5.5 1.5l14 3q50 22 71.5 67t2.5 92q-19 45 -43.5 57.5t-45.5 -5.5 q-25 -18 -39 -55.5t-9 -77.5q1 -9 -5.5 -13.5t-14 -2t-8.5 11.5q-7 48 10 92.5t49 68.5q35 26 72.5 9t60.5 -74q21 -51 5 -101t-64 -78q-14 -8 -14.5 -14t5.5 -8l6 -2q33 -16 53.5 -47t24.5 -70q11 -88 -19 -146.5t-84 -71.5q-53 -12 -94 23.5t-44 102.5z" />
<glyph unicode="4" horiz-adv-x="275" d="M-26 313q1 1 2.5 5.5t3.5 7.5l16 27q26 39 163 240q1 3 4 4q10 7 16 7q11 0 14 -12q6 -40 4 -102q-6 -83 -8 -133q0 -7 0.5 -11t3.5 -6t5 -3t8.5 -1.5t8.5 -0.5q14 0 14 -15q-2 -15 -16 -13h-7q-14 0 -17 -4t-4 -15q-14 -219 -14 -281q0 -14 -14 -14t-14 14q0 20 2 58 t5.5 103t5.5 120q1 15 -3 18t-17 3q-56 2 -119 -10q-6 -2 -9 -2l-16 -3h-3q-1 -1 -7 1q-10 6 -8 18zM34 356q-10 -11 -9 -17.5t24 -4.5q2 0 4.5 0.5t3.5 0.5q47 4 82 3q8 0 11.5 0.5t6.5 5t3 14.5q0 5 1 15.5t1 15.5q0 8 3 55.5t3 55.5v11q0 42 -24 7q-86 -124 -110 -162z " />
<glyph unicode="5" horiz-adv-x="291" d="M-7 113q0 6 4 10t10 4t10 -4t4 -10q0 -55 23.5 -83t59.5 -25q24 2 46 15.5t38.5 38t22.5 54.5q14 69 -8 131t-74 73q-13 1 -23 -1q-4 -1 -15 -2.5t-20 -3.5l-27 -6q-3 0 -7 -0.5t-7 -1.5h-2q-7 -1 -11 4.5t-5 15.5t-0.5 19t1.5 20.5t1 15.5q0 6 -1 30.5t-1 32.5v44 q2 41 7 61q7 34 27 40q32 10 169 -10q4 0 7 -2t5 -5.5t2 -7.5t-2.5 -7t-6 -4.5t-7.5 -1.5q-10 1 -50 6t-61.5 6.5t-47.5 -2.5q-4 0 -7 -19q-9 -34 -6 -97q0 -10 0.5 -24.5t0.5 -26v-13.5v-13q0 -4 -0.5 -11t-0.5 -12q2 -7 21 -4q43 11 57 9q38 -2 66 -25.5t41 -58t17.5 -76 t-4.5 -79.5q-11 -54 -48.5 -90.5t-83.5 -40.5q-50 -4 -82 33t-32 104z" />
<glyph unicode="6" horiz-adv-x="278" d="M-8 245q-5 84 5 161t31 111q39 68 88 84q66 24 100 -64q5 -12 7 -37v-33q1 -6 -3 -10.5t-10 -4.5q-16 0 -16 18v29q-2 20 -4 28q-26 61 -65 47q-81 -30 -99 -173q-11 -77 -6 -154q0 -3 0.5 -8t0.5 -8q1 -17 17 12q73 113 132 89q50 -19 59 -116q7 -57 -5.5 -111.5 t-47.5 -86.5t-86 -16q-86 30 -98 243zM34 142q3 -28 21.5 -65.5t44.5 -46.5q51 -19 81 42q28 57 20 141q-8 77 -41 93q-16 6 -37 -8q-28 -20 -56 -63t-33 -74v-19z" />
<glyph unicode="7" d="M0 504q-24 87 8 105q2 2 35 2q18 0 65.5 -1.5t67.5 -1.5q4 0 19 1t20 0q10 -2 15 -16q0 -3 -7 -28l-17 -49l-31 -80q-19 -53 -37 -122q-24 -89 -35 -125l-35 -100q-18 -51 -31 -98q-2 -13 -17 -11q-13 2 -11 17q13 50 32 102q29 82 35.5 102.5t33.5 119.5q23 85 39 125 l30 80q13 39 16 53h-19q-19 0 -67.5 2t-65.5 2h-19q-6 0 -6 -18q0 -1 0.5 -5t0.5 -5q1 -20 9 -43q2 -14 -10 -17q-13 -3 -18 9z" />
<glyph unicode="8" horiz-adv-x="293" d="M-11 85q-8 92 41 167q13 20 33 47q12 16 -3 28q-42 35 -59.5 74t-5.5 96q11 50 42.5 83t70.5 37q42 4 71 -28.5t22 -84.5q0 -1 -7.5 -26t-20 -58.5t-22.5 -48.5l-10 -15t-13 -19q-12 -15 4 -28l21 -15q43 -34 68 -71t25 -93q2 -52 -33 -93t-86 -54q-53 -13 -93 14t-45 88 zM17 87q5 -46 33.5 -65.5t69.5 -10.5q42 10 70.5 43t27.5 76q-2 80 -84 141l-19 15q-16 12 -29 -4q-25 -33 -32 -45q-44 -70 -37 -150zM23 491q-10 -48 4 -79.5t50 -60.5q15 -13 28 3q25 34 38.5 67t25.5 93q3 34 -14 56t-45 18q-28 -3 -53 -29.5t-34 -67.5z" />
<glyph unicode="9" horiz-adv-x="267" d="M19 375q-22 41 -5 97t59 94q44 42 83 32t56 -67l6 -28v-2q0 -37 0.5 -139t1 -204.5t0.5 -139.5q0 -6 -4 -10t-10 -4t-10 4t-4 10q0 29 -1 169.5t-1 184.5l-1 39q-1 -1 -9 -12q-13 -21 -32.5 -37t-42 -25t-46 0t-40.5 38zM43 389q23 -38 60 -23q73 35 86 132q0 8 -3 17 q-12 49 -37.5 55.5t-55.5 -24.5q-36 -34 -51.5 -80.5t1.5 -76.5z" />
<glyph unicode=":" horiz-adv-x="160" d="M30 149q-5 12 1 24t18 15q25 10 37 6q8 -2 11.5 -12t-1.5 -23t-20 -23q-12 -9 -26 -6.5t-20 19.5zM39 393q2 19 26 19q1 1 2 1q1 1 3 1q2 1 5 0h1h2q22 -4 31.5 -15.5t-0.5 -26.5q-7 -9 -20 -12.5t-25 1.5q-29 12 -25 32z" />
<glyph unicode=";" horiz-adv-x="201" d="M64 341q-14 18 -9 36t22 30t36.5 9t25.5 -24q3 -9 -1 -18t-12 -18t-10 -13q-11 -14 -24.5 -15.5t-27.5 13.5zM66 120q-11 13 -9.5 32.5t16.5 38.5q5 6 9 6q6 1 23 -3q35 -7 45 -32q9 -26 2 -57q-4 -11 -5 -24q-5 -21 -16 -47q-4 -8 -12 -8.5t-13 6t-1 14.5q12 28 14 40 v15v1q0 2 -4 2h-3h-14q-19 0 -32 16z" />
<glyph unicode="&#x3c;" horiz-adv-x="204" d="M-7 172q-5 17 16 57q25 49 67 107l25 36q20 29 29 49q4 10 13.5 9.5t12.5 -8.5q1 -3 1 -6.5t-0.5 -6t-2.5 -7t-3 -6t-4.5 -6t-3.5 -5.5q-60 -91 -67 -101q-31 -48 -42 -68q-9 -18 -11 -25q-3 -10 -2 -13q7 -31 57 -88q19 -22 42 -48q24 -26 34 -45q8 -12 -4.5 -19.5 t-19.5 5.5q-19 28 -74 88q-54 63 -63 101z" />
<glyph unicode="=" horiz-adv-x="362" d="M7 196q41 18 146 23h149q14 0 14 -14t-14 -14q-144 0 -195.5 -3t-87.5 -18q-9 -4 -15.5 1.5t-5.5 13.5t9 11zM13 354q0 14 14 14q76 0 137 1h137q14 0 14 -14t-14 -14h-137q-61 -1 -137 -1q-14 0 -14 14z" />
<glyph unicode="&#x3e;" horiz-adv-x="295" d="M0 385q-8 4 -7.5 12.5t7 12t14.5 -0.5q42 -24 79 -49l70 -46l14 -7q28 -14 53 -27q1 -1 5.5 -3t6.5 -4q1 -1 2 -1q12 -12 -1 -34q-5 -10 -20 -30q-18 -25 -65 -78q-47 -55 -95 -106q-3 -4 -6 -7.5t-5.5 -6.5t-4.5 -5.5t-3.5 -5t-2.5 -3.5q-5 -8 -13.5 -6.5t-11.5 8 t1 14.5q7 10 24 30l49 54q89 102 110 129q21 24 16 29q-2 1 -29.5 15.5t-39.5 20.5l-69 45q-55 37 -78 50z" />
<glyph unicode="?" horiz-adv-x="273" d="M7 433q0 99 23 135q22 37 75 38t90 -46q19 -27 27 -63t-1 -75t-37 -66l-24 -20q-29 -23 -44 -47q-28 -49 -17 -147q1 -6 -3 -10.5t-10 -4.5q-7 0 -10 3t-4.5 7.5t-1.5 8.5v3q-4 36 1 81.5t21 72.5q15 26 51 56q18 15 21 18q34 36 33.5 83.5t-25.5 82.5q-16 23 -41.5 30.5 t-46.5 1t-30 -20.5q-16 -27 -17 -81l-2 -42q0 -6 -4.5 -10t-10.5 -3q-6 0 -10 4.5t-3 10.5zM71 49q1 5 6 8.5t11 2.5q14 -5 17 -11q8 -15 5.5 -30t-17.5 -17q-15 0 -20 13.5t-2 33.5z" />
<glyph unicode="@" horiz-adv-x="386" d="M-1 225q-2 156 70 270q43 68 106 88q82 23 131 -91q17 -40 25 -87.5t6 -81.5q-1 -13 -4 -28t-8.5 -30.5t-12 -31t-14.5 -29t-16 -24t-17 -16.5t-18 -6q-23 0 -35 24q-1 1 -1 2l-8 -10l-6 -9q-33 -46 -79 -33q-12 4 -23 15.5t-17 24.5q-15 40 -3 97t41 100q12 18 18.5 26 t16.5 13t22 2q26 -6 40 -33.5t21 -85.5q1 -10 -2 -33.5t-3 -29.5q6 -42 18 -42q4 0 9.5 4t11 11t9.5 14q43 84 25 183q-4 27 -12 54t-21.5 55t-36 42t-49.5 6q-50 -15 -90.5 -77t-56.5 -147q-18 -81 -3 -155t57 -104q25 -19 71 -27t77 2q8 3 42 19t40 18q8 4 14.5 -1.5 t5.5 -13.5t-10 -11q-1 0 -37.5 -18t-46.5 -21q-36 -11 -90 -2.5t-84 31.5q-33 26 -52.5 74t-20.5 103zM104 182q7 -16 22 -22q15 -5 28.5 4t23.5 25.5t18 39.5l3 24l4 46q0 28 -5 46q-19 51 -37 33q-11 -8 -21 -24q-25 -37 -36.5 -89t0.5 -83z" />
<glyph unicode="A" horiz-adv-x="250" d="M-7 12q-10 200 19 469q6 56 24 95q16 33 39 37t51 -29q29 -42 36.5 -105.5t5.5 -197.5q-2 -124 3.5 -181t28.5 -83q6 -6 2.5 -13.5t-10.5 -9t-14 4.5q-28 31 -34.5 92.5t-3.5 190.5q0 35 1 46q-2 -1 -5 -1q-14 -2 -58 -6q-3 0 -11 -0.5t-10.5 -1t-9 -1.5t-9 -2.5t-6 -4 t-5.5 -6.5t-2 -9q-10 -158 -4 -282q1 -6 -3 -10.5t-10 -4.5q-6 -1 -10.5 3t-4.5 10zM30 366q-1 -11 4.5 -15.5t15.5 -3.5q64 8 87 8q4 0 4 20q-2 143 -39 191q-15 20 -23 19t-17 -21q-20 -44 -32 -198z" />
<glyph unicode="B" horiz-adv-x="257" d="M11 493q0 49 6 85q1 5 -1 13t-2 13q0 11 10 14q80 21 112 -64q20 -59 13 -136q-4 -42 -35 -73q0 -1 1 -3q34 -17 62.5 -62t32.5 -86q6 -84 -46 -146q-41 -51 -110 -61q-12 -4 -24 -4t-13 11v-11l-3 21q0 49 4 193q3 165 -1 193q-6 48 -6 103zM40 496q0 -4 2.5 -52 t2.5 -52q4 -108 0 -252q-2 -84 -2 -103q-2 -31 47 -11q62 28 84 99t-13 127q-31 49 -58 64q-1 1 -5 0q-3 0 -13.5 -0.5t-14.5 0t-10 4t-9 10.5q-1 5 1 11t6 6l1 1q1 0 2 1q55 18 60 71q5 60 -7 109.5t-44 60.5q-6 2 -11 2.5t-8 0.5l-2 -1v-2q-9 -32 -9 -94z" />
<glyph unicode="C" horiz-adv-x="248" d="M-7 424q10 93 36 143q26 48 72 61q56 14 82 -42q25 -52 16 -96q-2 -13 -17 -11q-13 2 -11 17q7 37 -12.5 74.5t-49.5 29.5q-34 -9 -54 -47q-53 -98 -30 -320q14 -129 41 -176q21 -36 43 -32.5t38.5 25.5t19.5 45q1 9 8.5 11.5t14 -2t5.5 -13.5q-4 -28 -20 -52t-39 -35 q-24 -13 -51 -3t-45 42q-29 52 -43 175.5t-4 205.5z" />
<glyph unicode="D" horiz-adv-x="264" d="M12 454q-1 91 10 143l-1 11q0 14 14 14q103 0 147.5 -80t32.5 -208q-10 -109 -54 -207.5t-96 -124.5q-3 -2 -7 -2q-3 0 -7.5 -1.5t-9.5 -1.5q-12 -4 -16 11q-8 49 -7 112q0 26 0.5 52t1 39t0.5 18q0 3 -3 62q-5 99 -5 163zM41 454q0 -81 4 -160q3 -60 3 -63q1 -5 -1 -111 q-1 -50 4 -93q1 0 2 1q43 22 83 114t50 195q11 108 -19 174t-97 79q-20 5 -23 -15q-7 -45 -6 -121z" />
<glyph unicode="E" horiz-adv-x="256" d="M6 69q0 25 1 41v26q0 31 -1 91q-3 202 2 297q1 25 5 50q6 26 14 31t35 7h50q7 0 21 -1t26 -1.5t22.5 -1t13.5 -0.5q6 0 10 -4t4 -10t-4 -10t-10 -4q-2 0 -58 2.5t-73 0.5h-11q-3 -2 -6 -5.5t-4 -6.5l-1 -2q-4 -20 -5 -47q-2 -40 -4 -142v-12q0 -21 20 -19q16 1 39 1 q6 1 10.5 -3t5.5 -10q0 -6 -4 -10.5t-10 -4.5q-3 -1 -27 -1q-3 0 -9 -0.5t-8 -0.5q-17 0 -17 -20q0 -17 1 -85.5t1 -78.5v-26q-1 -16 -1 -41q0 -12 1 -26.5t1 -20.5h6q2 0 8 -0.5t11 -0.5h32q28 0 47 1h30q6 0 10 -4t4 -10t-4 -10t-10 -4t-37.5 -1t-38.5 -1q-35 0 -46 1h-9 q-14 0 -20 4q-12 0 -12 32q-1 10 -1 40z" />
<glyph unicode="F" horiz-adv-x="273" d="M1 241q-4 133 5 225q0 7 1 14q0 16 1 27q0 62 6 86v3q0 3 4 9t9 6q1 0 2 1h8q17 0 87.5 2t87.5 2q14 0 14 -14t-14 -14q-39 0 -155 -4q-12 0 -16 -1v-4q0 -1 -0.5 -3t-1 -5.5t-0.5 -7.5q-2 -36 -2 -58q-1 -11 -1 -27q0 -2 -0.5 -4t-0.5 -3t-2 -19q0 -12 -1.5 -40.5 t-2.5 -45.5q0 -21 21 -18q4 0 14.5 0.5t16.5 0.5q14 0 14 -14t-14 -14q-19 0 -27 -0.5t-16.5 -6t-8.5 -17.5q0 -35 1 -55q6 -207 6 -224q0 -14 -14 -14t-14 14q0 30 -7 223z" />
<glyph unicode="G" horiz-adv-x="234" d="M-1 147q-12 80 -7.5 176t24.5 167q12 40 30.5 68t38.5 39t40.5 7.5t36.5 -22.5q25 -30 24 -73q0 -4 -2 -7t-5.5 -4.5t-7.5 -1.5q-6 0 -10 4.5t-3 10.5q1 33 -17.5 53t-43.5 6q-32 -15 -52.5 -84.5t-24.5 -166.5q-4 -93 7.5 -170t34.5 -104q51 -61 84 30q15 40 15 82 q0 40 -22 40q-24 -3 -46 -3q-14 0 -14 14t14 14q18 0 33 3q28 1 40.5 -4.5t18.5 -25.5q5 -18 5 -38q0 -48 -19 -97t-48 -63q-41 -21 -76 21t-48 129z" />
<glyph unicode="H" horiz-adv-x="236" d="M-2 602q0 6 4 10t10 4t10 -4t4 -10q0 -26 0.5 -103t0.5 -129q0 -5 0.5 -8.5t1.5 -5.5t1.5 -3.5t3.5 -2t3.5 -0.5h4.5h5q37 0 93 4h4q4 1 6.5 1t4.5 2t3 6.5t1 11.5q0 51 1 128t1 102q0 6 4 10t10 4t10 -4t4 -10q0 -56 -2.5 -296.5t-2.5 -295.5q0 -14 -14 -14t-14 14 q0 22 1 120t1 173q0 13 -5 16.5t-16 2.5q-52 -4 -91 -4q-13 0 -16 -4.5t-3 -16.5q1 -135 1 -296q0 -14 -14 -14t-14 14q0 56 -1 299t-1 299z" />
<glyph unicode="I" horiz-adv-x="228" d="M-14 6q-1 6 3 10.5t10 4.5q10 1 30 1t30 1q21 0 21 10q0 7 -1.5 42.5t-0.5 62.5q1 23 1 45q0 18 1 97.5t1 96.5q0 92 -5 170v4l-1.5 9t-5.5 5t-14 1q-5 -1 -23 -2.5t-26 -2.5t-13 5.5t-2.5 14t11.5 8.5q41 6 117 5q26 -1 49 -1q14 0 14 -14t-14 -14l-6 1h-15h-22 q-11 0 -15.5 -2t-5.5 -2.5t0 -7.5t1 -9q4 -57 4 -168q0 -17 -1 -96.5t-1 -97.5v-46q-1 -38 3 -100v-5.5t0.5 -4.5t1 -2.5t3 -1.5t5.5 -0.5t9 -0.5q20 0 30 -1q14 0 14 -15q-2 -15 -16 -13q-83 3 -156 0q-6 -1 -10.5 3t-4.5 10z" />
<glyph unicode="J" horiz-adv-x="275" d="M-17 135q-1 5 3 10t10 6q6 0 10.5 -4t4.5 -10q4 -50 31 -83q25 -33 58 3q9 9 16 32q23 78 32.5 192.5t2.5 214.5q-3 45 -10 78q-2 8 -3 10.5t-5.5 4.5t-14.5 2q-39 0 -54 2q-6 0 -10 4.5t-3 10.5q0 6 4.5 10t10.5 3q35 -2 73 -1h75q6 1 10 -3t4 -10q0 -14 -14 -14h-25 q-17 0 -19.5 -6t1.5 -16q6 -30 9 -73q12 -178 -21 -352q-14 -84 -39 -109q-29 -28 -54.5 -27.5t-46.5 26.5q-30 38 -36 99z" />
<glyph unicode="K" horiz-adv-x="267" d="M7 327v22q0 144 14 247q1 9 8.5 11.5t14 -2t5.5 -13.5q-5 -36 -11 -153q-2 -46 21 -6q64 109 120 163q7 6 14.5 3t9 -10t-3.5 -13q-30 -28 -69 -84t-71 -116q-9 -15 10 -25q49 -21 68 -139q2 -10 7 -54t10.5 -73t13.5 -44q8 -16 16 -16h22q14 0 14 -14t-14 -14h-4l-15 -1 q-22 0 -33 15q-6 6 -11.5 16.5t-8.5 19.5t-6.5 25t-4.5 24.5t-3.5 28t-3.5 25.5q-11 104 -28 140q-12 25 -30 35q-22 10 -22 -17q0 -97 10 -297q1 -6 -3 -10.5t-10 -4.5q-6 -1 -10.5 3t-4.5 10q-9 173 -11 318z" />
<glyph unicode="L" horiz-adv-x="215" d="M4 577q-1 9 5.5 13.5t14 2t8.5 -11.5q14 -98 9 -288q-2 -106 -1 -132v-83q0 -38 1 -50v-13q2 -1 5 -1q1 0 16 -2h26q5 -1 66 -1q6 0 10 -4t4 -10t-4 -10t-10 -4h-66q-21 0 -41 2q-25 2 -30 10q-4 4 -4 9q0 2 -0.5 8t-0.5 10v6q0 29 -1 50q0 22 1 36v47q-1 29 1 133 q3 192 -9 283z" />
<glyph unicode="M" horiz-adv-x="364" d="M5 585q-5 19 8.5 26.5t27.5 -5.5q18 -18 41 -59q24 -48 47 -77q3 -3 6 -7.5t4 -5.5t3 -2.5t3.5 0.5t3.5 5l6 9q50 81 85 121q1 0 1 1t0.5 2t2 2.5t1.5 2.5q10 20 26 11q5 -2 9 -10q0 -2 3 -20q9 -54 13 -249q8 -206 21 -309q1 -6 -2.5 -11t-9.5 -5q-6 -1 -11 2.5t-5 9.5 q-14 107 -21 312q-5 94 -6 142q-4 51 -4 66q0 2 -0.5 6.5t-0.5 7.5q0 8 -15 -6l-10 -11q-25 -35 -52 -79l-8 -13q-1 -1 -2 -4q-5 -7 -5 -9.5t4 -6.5q3 -5 6 -8q42 -56 44 -59q5 -8 1 -15t-11.5 -7.5t-13.5 6.5q-6 9 -32 43q-11 14 -14.5 14t-13.5 -15q-30 -44 -34 -49 q-5 -7 -13 -5.5t-11 8.5t2 15q6 9 19.5 29t21.5 31t8 13.5t-10 15.5q-22 26 -32.5 42.5t-29.5 51.5q-6 12 -8 15q-6 11 -7 -7v-29q1 -14 1 -47q0 -31 -3.5 -162.5t-3.5 -161.5v-33q-1 -14 -1 -33q0 -33 6 -62q2 -15 -10 -17q-16 -2 -18 11q-7 29 -6 96q1 22 1 38 q0 30 3.5 161.5t3.5 162.5q0 62 -5 110q0 1 -1 2l-1 3q-1 1 -1 2t-0.5 1.5t-0.5 1.5z" />
<glyph unicode="N" horiz-adv-x="303" d="M12 589v5v2q1 2 1.5 4t1.5 4.5t2.5 4.5t3.5 3.5t5 1.5q14 2 16 -12q3 -23 20 -59q4 -10 16 -32l16 -29l95 -184q3 -6 7.5 -16t6 -14t4.5 -8.5t3.5 1t2 13.5t-0.5 30q-3 71 0 139q5 101 -5 154q-2 15 11 17q15 2 17 -11q11 -63 6 -162q-2 -64 -2 -72q7 -262 17 -358 q1 -6 -3 -10.5t-10 -4.5q-6 -1 -10.5 3t-4.5 10q-5 51 -11 159q-1 13 -7 24l-139 270q-23 46 -23 -6q0 -156 -3 -271q-3 -103 -3 -158q0 -14 -14 -14t-14 14q0 19 2.5 141.5t2.5 140.5q3 175 -7 280z" />
<glyph unicode="O" horiz-adv-x="287" d="M-7 259q-16 245 50 319q21 24 55 32t69.5 -9.5t52.5 -62.5t20 -115v-5q4 -182 -15 -320q-8 -60 -25 -78q-29 -29 -74 -29q-39 0 -65 19.5t-39.5 60.5t-19 82t-9.5 106zM21 261q4 -62 9 -100.5t16 -74t31 -51.5t49 -16q13 0 29.5 6t22.5 15q9 9 18 62q10 59 14 162.5 t1 166.5v4q-10 147 -85 148q-40 0 -61 -23q-57 -66 -44 -299z" />
<glyph unicode="P" horiz-adv-x="210" d="M-11 605q-2 6 2.5 11t10.5 5q50 3 92 -24.5t60 -74.5t2 -98q-18 -46 -54 -71q-23 -17 -58 -36q-15 -7 -15 -17q-3 -183 11 -293q1 -9 -5.5 -13.5t-14 -2t-8.5 11.5q-14 104 -11 297q3 186 -2 279q-1 6 -5 13.5t-5 12.5zM29 568q4 -91 1 -197q0 -13 7.5 -17t17.5 2 q59 34 73 78q16 48 -7.5 91.5t-70.5 59.5q-10 4 -16 -1t-5 -16z" />
<glyph unicode="Q" horiz-adv-x="275" d="M0 98q-41 337 7 451q21 53 61 64.5t76 -20.5q34 -27 46.5 -60.5t12.5 -106.5l-2 -18v-43q3 -100 1 -163.5t-12 -109.5q-3 -15 8 -26l26 -29q6 -7 3 -14.5t-10 -9t-13 3.5l-10 10q-12 12 -16 11.5t-11 -16.5q-16 -34 -44.5 -47.5t-53.5 -4.5q-58 23 -69 128zM28 102 q2 -16 5.5 -32t10.5 -33t16.5 -26.5t22.5 -14t30 6.5q22 13 37 52q6 14 -6 27q-31 37 -53 68q-3 5 -3 9.5t3.5 7.5t7.5 4.5t8.5 0.5t7.5 -6q3 -4 8 -10.5t9.5 -12.5t8.5 -12q13 -18 19 -17t8 23q6 64 5 228q0 14 2 63t-2 66q-5 44 -47 77q-26 22 -51 15t-42 -47 q-44 -107 -5 -437z" />
<glyph unicode="R" horiz-adv-x="282" d="M-20 603q39 17 83 14t81 -24q42 -22 62.5 -59.5t11.5 -84.5q-12 -68 -87 -105q-16 -9 -4 -25q34 -48 40 -165q2 -48 8 -78q8 -34 19 -45q8 2 16 10q6 7 14 5.5t10.5 -8.5t-2.5 -15q-17 -22 -37.5 -21.5t-34.5 28.5q-14 27 -19 77q0 4 -2.5 41.5t-3.5 45.5q-6 86 -41 118 q-10 10 -30 3q-16 -6 -16 -24q-6 -250 -6 -278q0 -6 -4 -10t-10 -4t-10 4t-4 10q0 62 3 181t3.5 189t-2.5 178q-1 25 -23 17h-1l-2 -1q-8 -4 -14.5 1t-6 13t8.5 12zM47 568q4 -104 1 -203q0 -11 7 -15.5t17 -0.5q54 21 82 44t36 62q9 52 -28.5 90t-94.5 43q-22 2 -20 -20z " />
<glyph unicode="S" horiz-adv-x="295" d="M9 471q9 65 49.5 102.5t90.5 33.5q52 -4 80 -48.5t17 -114.5q-1 -9 -8.5 -11.5t-14 2t-5.5 13.5q9 58 -12 93t-59 37q-38 3 -69.5 -27t-40.5 -84q-8 -51 24 -88q26 -32 74 -71q28 -21 59 -52q55 -55 55 -125q-2 -65 -40 -95q-41 -33 -95 -28.5t-76 45.5l-6 15 q-11 25 -11 61v42q0 6 4 10t10 4t10 -4t4 -10v-23q0 -5 1 -10v-12q0 -20 10 -50q8 -25 32 -35.5t53 -3.5q75 15 75 93q0 68 -70 128l-25 21q-3 2 -11 10q-40 31 -64 58q-30 33 -40 76q-5 25 -1 48z" />
<glyph unicode="T" horiz-adv-x="271" d="M-9 584q-1 6 3 10.5t10 4.5q17 1 207 1q14 0 14 -14t-14 -14h-75q-19 0 -21 -19q-4 -122 -2 -360v-169q0 -14 -14 -14t-14 14q0 494 1 528q2 20 -20 20q-42 0 -60 -1q-6 -1 -10.5 3t-4.5 10z" />
<glyph unicode="U" horiz-adv-x="264" d="M17 595q0 6 4.5 10t10.5 4q4 0 7 -2.5t4.5 -6t1.5 -7.5q-22 -252 17 -435q11 -49 24 -79q20 -48 41 -50q11 0 18 10q10 10 18 34q10 29 16 79q14 137 8 286q-1 53 -6 149q-1 6 3 10.5t10 5.5q6 0 10.5 -4t4.5 -10q5 -98 7 -157.5t0.5 -136t-9.5 -147.5q-2 -26 -7.5 -50 t-14.5 -48t-24.5 -37.5t-35.5 -11.5q-59 2 -91 151q-40 181 -17 443z" />
<glyph unicode="V" horiz-adv-x="320" d="M4 591q2 13 17 11q5 -1 7.5 -4.5t3 -7t1 -11t0.5 -11.5q0 -2 7 -38q8 -45 24 -109q18 -77 36 -146q8 -29 9 -39l28 -117q11 -34 19 -4q1 6 3 16q19 84 37 191q3 16 7 42t5 33.5t4 24.5t4 23t4 20t6 26t7 30q9 35 12 55q1 9 8.5 11.5t14 -2t5.5 -13.5q0 -4 -25 -114 q-8 -36 -24 -141q-19 -112 -31 -163q-3 -14 -11.5 -56.5t-15 -69t-10.5 -28.5q-5 -3 -12 -0.5t-7 8.5l-2 2q0 1 -2 7q-12 43 -34.5 140t-26.5 111q-39 153 -60 256q-11 56 -8 67z" />
<glyph unicode="W" horiz-adv-x="451" d="M-8 604q0 6 4 10t10 4t10 -4t4 -10q0 -35 14 -105q6 -31 9 -49t5 -30.5t6 -31.5q14 -105 24 -146l6 -27q3 -18 7 -29l8 -28q0 -1 18 -64q1 -3 2.5 -5.5l3 -5t3 -4.5t2.5 -3.5t2 -2.5l1 -1l1 -1q8 48 8 63q1 12 4 24l25 157q1 14 -1 26q-31 144 -42 252q-1 5 3 10t10 6 q6 0 10.5 -4t4.5 -10q7 -71 17 -122q10 -53 12 -53.5t5 12.5q1 7 7 40l23 127q2 13 17 11q13 -2 11 -17q-33 -181 -44 -251q-1 -14 1 -25l37 -165q5 -22 20 -66q11 -24 17 -23q14 66 29 165l16 102l16 88q8 50 18 100l20 89q1 6 6.5 9t11.5 2q5 -1 8 -6t2 -11l-20 -90 q-8 -40 -34 -187q-36 -223 -45 -268q-10 -41 -14 -54l-0.5 -1t-0.5 -2q0 -4 -5 -7.5t-10 -3.5q-4 0 -8.5 2.5t-4.5 5.5v1l-1 1q-1 3 -3.5 8.5t-2.5 6.5l-14 40q-19 54 -29 93l-10 46q-1 6 -4 17q-7 36 -9 37t-3 -4t-5 -29q-2 -13 -3 -21l-8 -50q0 -3 -3 -30q-1 -7 -3 -22.5 t-3 -22t-3 -18t-4 -20t-5 -17.5q-1 0 -1.5 -2l-0.5 -2q-7 -12 -18 -12q-7 0 -11 4t-10 23l-12 40q-25 85 -34 120l-8 31q-1 5 -3.5 16t-3.5 18l-6 32q-2 15 -10 64t-12 81q-7 28 -17 92.5t-10 86.5z" />
<glyph unicode="X" horiz-adv-x="257" d="M-4 576q-2 15 11 17q15 2 17 -11q4 -15 16 -53.5t24 -76.5t15 -53l9 -36q5 -22 8.5 -28t7 -0.5t9.5 27.5l15 52q2 4 14 52q18 82 42 120q4 8 12.5 7.5t12 -7t-0.5 -14.5q-20 -35 -38 -112l-14 -54l-39 -131q-4 -12 -1 -26q37 -141 81 -235q4 -8 -1 -14.5t-13 -6t-12 8.5 q-12 27 -33 86.5t-29 81.5q-10 27 -13.5 27t-11.5 -27q-26 -84 -61 -168q-3 -9 -11 -10t-13.5 5.5t-1.5 14.5q38 96 82 237q4 13 1 26l-29 118q-3 12 -26.5 87t-28.5 96z" />
<glyph unicode="Y" horiz-adv-x="309" d="M-2 596q-2 15 11 17q15 2 17 -11q10 -43 36 -122q33 -87 36 -93q6 -15 12 -16.5t9 4.5l3 6l41 93q56 124 73 147q5 8 13.5 6.5t11.5 -8t-1 -14.5q-16 -24 -54 -105.5t-57 -129.5q-9 -22 -14 -36t-8 -30.5t-4 -32.5t-1 -43q-1 -21 0 -63.5t2.5 -87t1.5 -61.5 q0 -14 -14 -14t-14 14q0 24 -3 91q-6 126 2 195q1 5 -11 37q-17 45 -47 123q-30 81 -41 134z" />
<glyph unicode="Z" horiz-adv-x="300" d="M6 12v6l2.5 6.5t2.5 8.5q4 15 15 43q48 125 101 262q25 64 33 78q11 21 29 72t25 82q2 12 2 16l-2 -0.5l-2 -0.5h-2.5t-3 -0.5t-3 -0.5t-4 -0.5t-4.5 -0.5q-1 0 -4 -0.5t-4 -0.5q-93 -14 -177 -2q-9 1 -11.5 8.5t2 14t13.5 5.5q80 -10 169 2q20 5 35 5h6q3 0 4 -1 q3 0 4 -1q19 -9 10 -49q-4 -25 -22 -77t-34 -83q-50 -112 -133 -338q-11 -27 -15 -42l14 -3q52 0 115 5q5 0 32 2t40 2q14 0 14 -14t-14 -14q-13 0 -38.5 -2t-32.5 -2l-48 -3q-43 -3 -68 -3q-9 0 -12 1q-16 0 -24 3q-13 7 -10 16z" />
<glyph unicode="[" horiz-adv-x="240" d="M21 69l2 14t2 12.5t1.5 10t1 8t1 5.5t0.5 3.5v1.5q1 34 -1.5 175t-2.5 158q0 6 -3 28q-5 56 1 81q5 22 16.5 29t35.5 8q69 0 108 -10q13 -5 9.5 -17.5t-17.5 -10.5q-30 9 -99 9q-16 0 -19.5 -2t-5.5 -13q-5 -19 0 -71q0 -6 0.5 -13.5t1 -11.5t0.5 -6q0 -17 2.5 -158.5 t1.5 -174.5q0 -7 -7 -59q-2 -17 -2 -29.5t2 -19.5l4 -2q19 -6 48 -8q6 -1 76 -1q14 0 14 -14t-14 -14h-78q-67 6 -76 29q-8 20 -3 63z" />
<glyph unicode="\" horiz-adv-x="275" d="M-2 589q-1 9 5.5 13.5t14 2t8.5 -11.5q2 -17 9.5 -44.5t18 -61.5t14.5 -47q75 -275 158 -420q5 -8 0.5 -15t-12 -6.5t-12.5 7.5q-81 139 -162 426q-38 128 -42 157z" />
<glyph unicode="]" horiz-adv-x="209" d="M-16 576q-1 6 3 10.5t10 4.5q40 4 78 4q30 0 46 -4q27 -5 33 -19q9 -22 -2 -158q-1 -24 5.5 -184.5t6.5 -196.5v-16q0 -1 -0.5 -3.5t-1.5 -3.5q-5 -10 -30 -18q-30 -6 -65 -6q-9 -1 -26 -1h-14q-6 -1 -10.5 3t-4.5 10q-1 6 3 10.5t10 4.5q2 1 15 1q36 0 84 6q11 4 11 13 q0 15 -5 168q-7 202 -6 215q0 12 3 47t4 55t-3 41q0 1 -1 1q-18 6 -52 6q-33 0 -76 -3q-6 -1 -10.5 3t-4.5 10z" />
<glyph unicode="^" horiz-adv-x="256" d="M-12 329q73 116 118 229q1 4 3 9t3 8t2.5 7t2.5 5.5t2.5 4.5t2.5 3.5t3 2.5t3 1.5t3.5 0.5t4.5 0q14 -3 16 -21q2 -9 9 -68q18 -93 48 -171q4 -14 -9.5 -18.5t-18.5 8.5q-33 89 -50 189l-2 15q-58 -127 -117 -221q-5 -8 -13.5 -6.5t-11.5 8t1 14.5z" />
<glyph unicode="_" horiz-adv-x="442" d="M-15 -9q-1 4 0.5 7.5t4 6.5t6.5 3q38 10 113 7q10 0 21 -0.5t17 -1t9 -0.5q21 0 112.5 1.5t112.5 1.5q6 0 10 -4t4 -10t-4 -10t-10 -4q-21 0 -112.5 -1.5t-112.5 -1.5q-25 0 -49 1q-74 2 -105 -6q-15 -2 -17 11z" />
<glyph unicode="`" horiz-adv-x="176" d="M25 567q-8 4 -8.5 12t6 13t14.5 1q28 -14 47 -33l22 -21l19 -17q10 -10 0.5 -20.5t-20.5 -1.5q-18 19 -40 38q-16 16 -40 29z" />
<glyph unicode="a" horiz-adv-x="261" d="M-7 6q4 34 11 127q2 22 5 60q12 153 17.5 204t17.5 108q18 88 44 102q56 29 78 -46q15 -43 15 -91q33 -237 33 -468q0 -14 -14 -14t-14 14q0 149 -13 291q-2 19 -20 19q-28 3 -86 5q-19 2 -21 -18q-17 -250 -25 -297q-1 -9 -8.5 -11.5t-14 2t-5.5 13.5zM52 367 q0 -9 2 -14t6 -6t11 -1q48 -2 74 -4q7 -1 12 -0.5t7 5t2 15.5q-1 19 -16 127q0 1 -1 5q-2 18 -4 29.5t-6 28.5t-10.5 25.5t-15.5 7.5q-12 -1 -18 -13q-3 -4 -7 -14q-8 -18 -16 -59q-17 -84 -20 -132z" />
<glyph unicode="b" horiz-adv-x="299" d="M6 590v9q-2 15 11 17q36 7 67 -7.5t49 -45.5q38 -59 11 -128q-14 -32 -28 -52q-10 -16 9 -17q43 -5 76 -41q24 -25 38 -63q34 -88 -11 -165t-165 -102l-29 -1q-14 0 -14 14q0 205 -6 427q-11 120 -8 155zM34 586q-1 -38 -1 -50t4 -50t5 -49l3 -58q2 -37 25 -10 q89 103 39 179q-21 34 -55 40h-20v-2zM47 278q1 -53 1 -233q0 -23 4 -23h2q108 23 147.5 88.5t10.5 141.5q-25 67 -75 82q-45 15 -82 -31q-8 -11 -8 -25z" />
<glyph unicode="c" horiz-adv-x="279" d="M21 448q7 64 38 112.5t71 59.5q45 13 73.5 -25t28.5 -115q0 -14 -14 -14t-14 14q0 69 -23 98q-17 23 -45 14t-54 -48q-26 -41 -33 -100q-29 -281 4 -364q18 -42 46.5 -55t53 6.5t31.5 66.5q1 9 8.5 11.5t14 -2t5.5 -13.5q-6 -43 -28 -70.5t-53 -31.5q-31 -5 -59 16 t-45 62q-37 88 -6 378z" />
<glyph unicode="d" horiz-adv-x="249" d="M16 305q0 22 2.5 142.5t2.5 145.5v2q0 13 14 13h1q31 -1 53 -15.5t48 -45.5q91 -109 57 -278q-30 -148 -127 -260q-5 -5 -8 -5q-19 -2 -22 -2q-5 0 -8.5 4.5t-3.5 8.5q-11 117 -9 290zM45 305q-1 -114 4 -229q1 -18 10.5 -19.5t17.5 11.5q51 74 76.5 155.5t17.5 164 t-56 141.5q-23 28 -43 39q-10 8 -16.5 5.5t-6.5 -20.5q0 -26 -2 -128t-2 -120z" />
<glyph unicode="e" horiz-adv-x="259" d="M19 580q5 36 19 45q9 5 32 5l127 -3q14 2 16 -13q0 -15 -26 -15q-5 0 -56 1t-60 1q-12 0 -15 -1h-3q-1 -1 -1 -2v-1q-1 -1 -1.5 -2.5t-1 -4.5t-0.5 -6q0 -1 -0.5 -3t-0.5 -4q-3 -26 2 -106t4 -103q-1 -14 3.5 -18t16.5 -4q5 0 13 0.5t12.5 0.5t10 -0.5t8 -4t3.5 -8.5 q0 -15 -14 -15q-10 -1 -35 -1q-8 0 -11.5 -0.5t-6.5 -5t-3 -14.5q-8 -152 -2 -231q1 -22 5 -39v-3l1 -2l2 9q0 -16 15 -19q4 -4 54.5 -0.5t58.5 3.5q14 0 14 -14t-14 -14q-3 0 -68 -5q-49 -1 -73 9q-12 4 -18 29q-5 17 -6 44q-5 73 5 297q1 33 -3 88q-7 95 -3 130z" />
<glyph unicode="f" d="M21 209q6 149 10 203q1 14 -1 96.5t-2 84.5q0 23 19 23q36 -2 83 -2q58 0 86 -3q6 0 10 -4.5t4 -10.5q-1 -6 -6 -10t-10 -3q-38 2 -83 2q-39 0 -54 1q-10 1 -15.5 -4.5t-4.5 -15.5q6 -128 1 -187q-1 -13 4 -17t16 -2h6q13 1 29 1q14 2 16 -13q0 -15 -14 -15q-3 0 -41 -3 q-7 -1 -8.5 -1t-5.5 -2t-5 -6t-1 -11q-10 -197 -1 -298q1 -6 -3 -10.5t-10 -4.5q-6 -1 -10.5 3t-4.5 10q-9 78 -4 199z" />
<glyph unicode="g" horiz-adv-x="256" d="M12 492q16 88 53 114q58 35 99 -11q41 -41 20 -99q-3 -8 -11 -9t-13.5 5.5t-1.5 15.5q15 37 -15 67q-19 19 -38.5 18.5t-37 -28.5t-27.5 -78q-13 -75 -10.5 -172.5t18.5 -176.5q17 -81 41 -104q48 -45 77 34q11 34 13.5 76.5t-4.5 52.5q-6 9 -33 7h-16q-14 0 -14 14 t14 14l15 1h19q29 -3 40 -22t9 -66q-2 -50 -18.5 -93t-43.5 -58q-38 -21 -73.5 15t-53.5 123q-16 81 -19 182t11 178z" />
<glyph unicode="h" horiz-adv-x="286" d="M30 465q2 96 1 120q0 3 0.5 6t2.5 5t4.5 3.5t5.5 1.5q6 0 10.5 -4t4.5 -10q1 -19 0 -62t-2 -90t-1 -66q0 -13 4.5 -16.5t15.5 -3.5h105q11 0 15.5 4t5.5 16q2 34 2 75q0 37 2 73q0 37 -10 64q-4 14 9.5 18.5t18.5 -8.5q10 -33 10 -74q0 -9 -1 -37.5t-1 -35.5 q0 -18 -2.5 -110t-2.5 -110q-3 -149 12 -208q2 -15 -10 -17q-16 -2 -18 11q-16 60 -13 214q2 42 2 77q0 14 -4 17t-16 3h-103q-8 0 -11.5 -1t-5.5 -5.5t-2 -13.5q7 -147 7 -291q0 -14 -14 -14t-14 14q0 77 -4 182q-7 172 -3 273z" />
<glyph unicode="i" horiz-adv-x="114" d="M32 267q9 197 4 331q-2 14 13 16q15 0 15 -14q5 -117 -4 -335q-2 -61 2 -132q5 -115 5 -134q0 -14 -14 -14t-14 14q0 8 -4.5 125.5t-2.5 142.5z" />
<glyph unicode="j" horiz-adv-x="300" d="M-14 172q-1 6 2.5 11t9.5 6q8 0 12 -4.5t4.5 -8t1.5 -12.5q0 -3 2 -15l3 -29q3 -37 23 -72q28 -43 51 -20q27 24 37 75q15 71 15 241q0 43 -2 107q0 -9 -1 3q-10 78 -10 115q0 19 -19 19h-53q-14 0 -14 14t14 14q114 0 176 3q14 2 16 -13q0 -15 -14 -15q-9 -1 -27.5 -1.5 t-28.5 -0.5q-21 -2 -18 -22q11 -84 9.5 -244.5t-15.5 -225.5q-13 -61 -46 -91q-21 -20 -47 -13.5t-47 39.5q-16 24 -22 57q-5 25 -9 58q-3 21 -3 25z" />
<glyph unicode="k" horiz-adv-x="264" d="M16 417q0 87 5 184q0 6 4.5 10t10.5 4q6 -1 10 -5.5t3 -10.5q-4 -106 -4 -181q0 -39 11 -35q6 3 13 16q55 124 113 195q3 4 8 5t8.5 -1t6.5 -5t2.5 -8t-3.5 -9q-43 -52 -100 -170q-16 -36 -35 -70q-7 -14 2 -27q30 -43 66 -137q6 -12 27 -68q3 -7 10 -24l9 -20 q3 -6 11 -20l10 -18q4 -9 11 -17q5 -7 1 -14.5t-11 -8t-14 6.5q-17 24 -33 59l-10 20q-3 5 -10 24l-10 23l-9 24q-2 4 -8 23q-19 49 -40 92q-9 16 -16 17.5t-9 -24.5q0 -6 0.5 -19.5t0.5 -21.5q0 -74 1 -105v-90q0 -14 -14 -14t-14 14q0 46 -2 200t-2 206z" />
<glyph unicode="l" horiz-adv-x="226" d="M3 457q0 83 4 143q0 14 15 14q15 -2 13 -16q-3 -68 -3 -142q0 -40 1 -158.5t1 -154.5q0 -66 1 -72q2 -28 4 -38q0 -12 18 -16q7 -1 19.5 -1h26.5h27t23.5 -0.5t14.5 -1.5q6 -1 9 -6t2 -11t-6 -9t-11 -2q-12 4 -61 1q-47 -3 -70 8q-13 5 -17.5 22.5t-7.5 51.5v74 q0 37 -1.5 155t-1.5 159z" />
<glyph unicode="m" horiz-adv-x="339" d="M8 570v13q0 5 1 6v3q3 11 14.5 11t19.5 -9q38 -51 73 -119q9 -18 18 -37t12 -25q10 -22 14 -22t12 23l8 27q33 105 53 145q3 6 3 9q3 14 16.5 16t18.5 -10q1 -1 1.5 -3.5t0.5 -3.5q8 -40 8 -151v-150q0 -109 3 -149l3 -70q1 -29 5 -76q1 -6 -3 -10.5t-10 -4.5 q-6 -1 -10.5 3t-4.5 10q-10 94 -10 226q-1 33 -1 70q-1 21 0 79v72q0 25 -2 83q0 3 -0.5 7t-0.5 6l-9 -14q-8 -16 -12 -28q-3 -10 -10 -32t-11 -33l-22 -70q-1 -4 -3.5 -11.5l-3.5 -10.5q-2 -6 -2 -7l-1 -3q-14 -14 -23 -5l-5 5l-1 3q-1 1 -1 3q-1 3 -1 4l-9 23 q-12 34 -23 52q-20 40 -51 99l-12 21q-5 7 -8 6t-4 -7v-5q4 -84 4 -90q1 -25 0 -212.5t1 -220.5q1 -6 -3 -10.5t-10 -4.5q-6 -1 -10.5 3t-4.5 10q-4 68 -1 218q3 151 -2 258q-4 86 -4 90z" />
<glyph unicode="n" horiz-adv-x="268" d="M2 126q0 34 3.5 137.5t3.5 133.5q0 13 2.5 68t2.5 67q-3 48 -2 61t7 17q11 5 19 -1.5t11 -17.5l16 -54q8 -20 14 -43q0 -1 7 -30.5t16.5 -68.5t20.5 -83.5t22 -86t19 -65.5l1 -2q10 -35 19 -44q3 -3 3 3v44q0 38 -3 136q-6 194 9 304q1 9 8.5 11.5t14 -2t5.5 -13.5 q-14 -101 -8 -299q2 -128 2 -137v-79v-4q0 -16 -0.5 -24.5t-2.5 -21t-7 -18t-13 -4.5q-4 0 -8 2.5t-4 5.5q-1 3 -3 7.5t-4 8.5l-11 37l-26 79q-21 64 -45 168q-39 162 -40 168q-2 11 -7 23l-4 -45q-3 -51 -3 -67q0 -39 -3 -129q-4 -84 -3.5 -135t6.5 -123q1 -9 -5.5 -13.5 t-14 -2t-8.5 11.5q-7 48 -7 120z" />
<glyph unicode="o" horiz-adv-x="258" d="M22 565q11 21 32.5 38t42.5 22q68 15 96 -66q13 -36 15 -137q10 -232 -16 -333q-16 -64 -50 -85q-42 -28 -78 13q-23 30 -41 90q-16 55 -27 129.5t-7.5 172t33.5 156.5zM48 551q-28 -54 -31 -146t8 -164t26 -126q17 -59 35 -79q18 -21 40 -8q47 29 55 190q4 60 -1 251 q-2 26 -6 48t-12 43.5t-23.5 31.5t-35.5 5q-15 -3 -31 -16.5t-24 -29.5z" />
<glyph unicode="p" horiz-adv-x="224" d="M-2 582q-8 5 -6 14.5t11 11.5q24 6 47 3t43.5 -13t36.5 -26q37 -39 45 -89t-21 -98q-15 -25 -58 -51l-24 -14q-15 -9 -19 -11q-2 -1 -5.5 -2.5t-5 -2t-3.5 -2t-2 -3.5v-6l7 -105q7 -99 7 -164q0 -14 -14 -14t-14 14q0 67 -7 166q-8 107 -9 139q-1 19 1 71t3 61 q1 84 -12 120q-1 0 -1 1zM34 560q8 -40 5 -99q0 -9 -3 -70v-11t-0.5 -12t-0.5 -10q0 -23 0.5 -24t13.5 6q3 2 11 6q52 30 70 55q20 32 19 62.5t-17 59.5q-12 22 -34 38.5t-47 20.5q-10 1 -14.5 -5t-2.5 -17z" />
<glyph unicode="q" horiz-adv-x="312" d="M32 189q-14 80 -10 196.5t29 170.5q29 62 67 75t71 -24q49 -49 65 -141v-2q10 -79 4 -194.5t-23 -182.5q-4 -15 6 -27l21 -27q6 -7 2.5 -14.5t-11 -8.5t-13.5 5l-3 4q-19 25 -21 14q-17 -34 -39.5 -41.5t-44 7t-41.5 45.5q-20 32 -38 77t-21 68zM60 193q3 -21 19.5 -63 t35.5 -70q24 -37 41.5 -41t33.5 28q12 17 -2 31q-15 17 -26 24q-7 5 -5.5 13t8.5 11t15 -2q2 -1 4.5 -3l5 -4t5.5 -5q4 -4 7.5 -5.5t5 -1.5t2.5 2.5t1.5 4.5t1.5 6.5t1 7.5q12 65 16.5 155t-2.5 164v1q-18 99 -60 141q-22 21 -41 17q-26 -8 -50 -60q-23 -50 -26.5 -161 t9.5 -190z" />
<glyph unicode="r" horiz-adv-x="275" d="M22 71q0 104 6 152q9 198 -4 356q0 3 -1.5 10.5t-2 11.5t1.5 9t8 6q118 28 175 -50q27 -33 23.5 -81.5t-36.5 -89.5q-39 -51 -97 -76q-3 0 -3 -3.5t1 -4.5q31 -51 89 -196q18 -48 37 -83q4 -8 -1 -15t-12.5 -7t-12.5 8q-18 34 -38 86q-67 174 -90 197l-1 1l-2 2 q-4 -28 -4 -31q0 -9 -0.5 -26t-1.5 -26q0 -4 -0.5 -10t-1 -17.5t-0.5 -20.5q-3 -49 -3 -101q0 -22 2 -52q1 -6 -3 -10.5t-10 -4.5q-6 -1 -10.5 3t-4.5 10q-3 22 -3 53zM53 573q7 -89 6 -210q0 -21 8 -21l15 3q48 21 81.5 61t35.5 80q1 38 -18 63q-34 52 -110 46 q-18 -1 -18 -22z" />
<glyph unicode="s" horiz-adv-x="285" d="M-2 488q7 55 46.5 90.5t88.5 35.5q53 -1 79.5 -43t11.5 -111q-2 -13 -17 -11q-13 2 -11 17q12 57 -6.5 87.5t-56.5 31.5q-39 0 -70 -28t-37 -73q-6 -48 21 -86q17 -24 51.5 -57.5t61 -59t50 -66t27.5 -83.5q8 -70 -24 -111.5t-85 -37.5q-53 5 -87.5 53.5t-34.5 124.5 q0 6 4 10t10 4t10 -4t4 -10q0 -66 28.5 -106t68.5 -43q37 -3 60.5 28t17.5 88q-2 24 -10.5 46.5t-17.5 37.5t-27 35t-28.5 29.5t-32.5 29.5q-45 41 -70 76q-33 45 -25 106z" />
<glyph unicode="t" horiz-adv-x="281" d="M-12 590q-1 6 3 10.5t10 4.5q36 4 111 1q91 -2 108 -1q6 1 10.5 -3t5.5 -10q0 -6 -4 -10.5t-10 -4.5q-41 -2 -111 1q9 -45 6 -101q0 -8 -0.5 -18t-1 -15t-0.5 -8q0 -38 -3 -127q-7 -197 6 -280q1 -9 -5.5 -13.5t-14 -2t-8.5 11.5q-14 87 -6 286q3 88 3 125q0 22 1 43 q2 62 -5 95q0 4 -20 4q-25 1 -60 -1q-6 -1 -10.5 3t-4.5 10z" />
<glyph unicode="u" horiz-adv-x="240" d="M5 361q-7 149 1 237q0 6 4.5 10t10.5 4q4 0 7 -2.5t4.5 -6t1.5 -7.5q-8 -78 0 -233q8 -162 3 -237q-1 -34 0 -61t14.5 -42.5t41.5 -11.5q12 2 21 7t16.5 13.5t12.5 19.5t10 27q10 33 10 74v42q-1 18 -1 39q0 3 0.5 64t1 120t0.5 65q-8 80 -8 109q0 6 4 10t10 4t10 -4 t4 -10q0 -10 4 -54.5t4 -52.5q3 -19 1 -125q-3 -103 -3 -126q0 -111 -1 -121q-8 -63 -37 -101q-18 -23 -53.5 -28t-56.5 10q-20 14 -27 40q-11 30 -6 95q3 76 -4 233z" />
<glyph unicode="v" horiz-adv-x="270" d="M-8 596q-2 14 10.5 17.5t17.5 -9.5q14 -57 22 -126q4 -37 8 -63.5t7.5 -47t15 -83.5t23.5 -129q3 -16 9 -46l10 -32q4 19 20 167q25 223 60 345q5 13 17.5 9.5t10.5 -17.5q-25 -80 -37 -169l-12 -80q-6 -38 -17.5 -143t-12.5 -116q-1 -6 -2.5 -17.5t-3.5 -19t-5 -15.5 q-2 -2 -4.5 -5.5t-4 -5t-5 -3t-8.5 -0.5q-4 0 -9 5v1l-4 8q0 1 -13 48q-11 50 -27 137t-26 149l-11 62l-8 57q-12 87 -21 122z" />
<glyph unicode="w" horiz-adv-x="406" d="M6 600q0 4 2 7t5.5 5t7.5 2q6 -1 10 -5.5t3 -10.5q-1 -31 8 -85q4 -26 6 -42q0 -5 2 -20t5 -42.5t6 -54.5l17 -150q6 -50 8 -65q1 -10 3 -17t5 -13t7 1t8 28l7 34q30 165 36 210q2 21 13 27q4 1 9 0.5t9 -2t5 -2.5q2 -2 4 -10q5 -16 9 -46q23 -116 64 -228q15 -42 21 -39 l1 5q0 50 -1 75q-11 235 45 432q5 13 17.5 9.5t10.5 -17.5q-56 -192 -45 -422q2 -62 2 -78q-3 -50 -5 -62q-1 -1 -2.5 -4l-2.5 -5t-3.5 -4t-5.5 -3q-8 -2 -14 3q-10 10 -23 45q-52 127 -72 221q-12 55 -24 0q-5 -22 -20 -110l-20 -109q-6 -32 -11 -47q0 -2 -1 -4l-1 -3 q-8 -13 -21 -5q-6 6 -12 28q-7 26 -11.5 49.5t-9 56t-7 54t-8.5 75t-10 88.5l-12 117q-1 11 -6 40.5t-7.5 53t-0.5 39.5z" />
<glyph unicode="x" horiz-adv-x="312" d="M-8 19q6 18 68 155l43 114q6 13 0 26l-44 113q-34 89 -58 154q-4 14 9.5 18.5t18.5 -8.5q0 -1 4 -14t9.5 -30.5t14.5 -42t22.5 -58t29.5 -68.5q11 -25 14.5 -25t12.5 24q59 156 103 227q4 8 12.5 7.5t12 -7t-0.5 -14.5q-45 -73 -120 -275q-6 -14 0 -27l11 -29 q8 -24 24 -78q33 -114 66 -163q5 -8 1 -15t-11.5 -7.5t-13.5 6.5q-33 51 -70 171l-10 29l-5 18q-3 12 -6.5 17.5t-8.5 2t-11 -19.5q-22 -55 -58 -133q-25 -56 -31 -76q-5 -13 -17.5 -9t-10.5 17z" />
<glyph unicode="y" horiz-adv-x="290" d="M-6 586q-4 8 1.5 14.5t13.5 5.5t11 -10q22 -52 59 -126q5 -11 18 -38t19 -38q11 -17 16 -15.5t10 16.5q5 16 15.5 44t18.5 53q21 63 41 95q5 8 13.5 6.5t11.5 -8t-1 -14.5q-16 -25 -37 -87q-8 -25 -16 -43l-38 -111q-25 -76 -97 -321q-5 -13 -17.5 -9t-10.5 17 q20 66 40.5 134.5t31.5 105.5t16 52q2 5 2 10t-1 8l-1 3q-7 18 -33.5 72t-52 108t-33.5 76z" />
<glyph unicode="z" horiz-adv-x="289" d="M1 595q1 5 6 8t11 2q11 -4 111 -4q26 -1 67 -1h33q1 0 2 -1q17 -8 8 -44q-3 -11 -16 -47l-21 -49q-48 -112 -154 -420q-4 -12 -3 -17t5 -6h3q20 -3 72 -1t83 7q9 1 13.5 -5.5t2 -14t-11.5 -8.5q-65 -10 -161 -7q-5 1 -13.5 1.5t-12.5 1.5t-8.5 3.5t-6.5 6.5q-5 12 5 32 q2 5 65 182q69 194 83 226q0 3 13 30q31 73 35 93q1 2 1 5q0 4 -16 4h-67q-97 0 -117 5q-13 2 -11 18z" />
<glyph unicode="{" horiz-adv-x="278" d="M2 280q3 3 9 5q11 5 30 13.5t32.5 15t21.5 12.5t9 9l-1 1q-2 4 -5 7l-15 21q-30 37 -41 63.5t-4 58.5q10 47 62 77t117 30q14 0 14 -14t-14 -14q-71 0 -122 -41q-51 -44 -17 -106q7 -16 44 -58q9 -12 10 -20q3 -21 -15 -33q-25 -17 -3 -17q29 -4 34 -26t-14 -49 q-4 -6 -16 -22q-28 -37 -34 -51q-14 -30 5 -66q15 -29 34.5 -39.5t63.5 -17.5q9 -1 11.5 -8.5t-2 -14t-13.5 -5.5q-50 7 -75 21t-45 50q-33 60 15 127l18 22q15 19 22 32q2 4 0 9t-5 8l-3 2q-20 1 -58 -5q-23 -5 -35 -5t-17.5 10t2.5 18z" />
<glyph unicode="|" horiz-adv-x="132" d="M36 568q-1 9 5.5 14t14 2.5t8.5 -10.5q7 -35 7 -133q14 -199 14 -423q0 -14 -14 -14t-14 14q0 217 -14 421q-1 8 -3 63t-4 66z" />
<glyph unicode="}" horiz-adv-x="226" d="M-12 578q28 14 63 15t63.5 -12.5t33.5 -38.5q5 -26 -9 -60t-44 -84q-23 -37 -32 -55q-1 -2 0.5 -4.5t6 -5t10.5 -2.5h10q54 0 64 5q17 2 24 -8q7 -14 -12 -26l-12 -5q-45 -18 -61 -27q-14 -10 -14 -11q1 -1 9 -7.5t15 -11.5l27 -21q16 -16 19 -21q13 -18 9.5 -41 t-14.5 -44.5t-31.5 -45.5t-41 -43t-44.5 -37q-12 -8 -20.5 3.5t2.5 20.5q60 43 96.5 93t19.5 80q-9 11 -40 33l-25 20q-15 15 -15 23q0 5 2 9.5t6 8t8.5 6.5t10 6.5t8.5 5.5l10 6q-44 1 -58 24q-6 11 2 25q0 1 1 2q2 2 2 3q1 1 2 3t2 3.5t2.5 4t2.5 4.5q11 20 25 42 q54 92 49 123q-4 17 -29 23t-51 3t-40 -10q-8 -4 -14.5 1t-6 13t8.5 12z" />
<glyph unicode="~" horiz-adv-x="365" d="M-15 135q0 29 19 62t47 48.5t61 -4.5q11 -8 20 -27q7 -16 10 -20q22 -26 48.5 -24.5t52.5 21t49 53.5q3 5 7.5 6t8.5 -0.5t7.5 -4.5t3.5 -7.5t-3 -9.5q-15 -23 -33 -41.5t-39 -30.5t-42 -15t-42.5 5.5t-39.5 29.5q-6 6 -15 27q-3 8 -8 13t-12 7t-16 -1q-18 -6 -37 -33.5 t-19 -53.5q0 -14 -14 -14t-14 14z" />
<glyph unicode="&#xa1;" horiz-adv-x="91" d="M-4 419q1 1 6 8.5t8.5 11.5t8.5 6t9.5 1t7.5 -5t3 -9q0 -6 -2 -10l-7 -16q-8 -16 -27 -9q-17 7 -7 22zM3 -156q0 209 4 261q15 136 2 197q-1 6 2 11t9 6t11 -2t6 -9q10 -34 7 -102q0 -4 -0.5 -11.5t-1 -13.5t-1 -14.5t-1.5 -16.5q-3 -22 -4.5 -42t-2.5 -34.5t-1.5 -44.5 t-0.5 -45v-64v-76q0 -6 -4 -10t-10 -4t-10 4t-4 10z" />
<glyph unicode="&#xa2;" horiz-adv-x="267" d="M-7 160q2 66 33 115q14 24 40.5 42t55.5 24q8 1 17 1t17 -0.5t13.5 2.5t7.5 11l11 37q5 13 17.5 9.5t10.5 -17.5l-15 -50q-3 -13 6 -27q14 -23 14 -55v-22q1 -6 -3 -10.5t-10 -4.5q-6 -1 -10.5 3t-4.5 10q-1 3 -1 24q0 11 -1 15q-4 22 -14 -13q0 -3 -2 -9q-3 -10 -4 -14 l-27 -89q-3 -9 -33 -109q-5 -11 -2 -17t19 -5q32 3 71 30q8 5 15 1t7.5 -11.5t-6.5 -13.5q-54 -36 -99 -36q-19 0 -23 -16q-2 -8 -16 -66q-2 -13 -17 -11q-13 2 -11 17q11 49 17 70q4 16 -11 26q-30 21 -47.5 62.5t-14.5 96.5zM41 62q5 -10 17 -26q8 -10 14.5 -9.5 t12.5 18.5q6 17 17 55.5t14 49.5l42 139q6 15 4 19t-17 5q-25 1 -54 -15.5t-41 -36.5q-26 -45 -28.5 -102.5t19.5 -96.5z" />
<glyph unicode="&#xa3;" horiz-adv-x="406" d="M-33 245q-3 13 9 18q37 11 74 16q11 1 16.5 3.5t4 7t-3.5 7t-8 8.5q-6 7 -24 25q-15 15 -24 28t-15 29.5t-6 34.5t4 41q12 58 44.5 97t74.5 43q37 4 67.5 -25t43 -78t1.5 -99q-2 -13 -17 -11q-13 2 -11 17q9 42 -0.5 82.5t-33.5 64.5q-21 25 -50 21t-58 -41 q-21 -27 -31 -70t-1 -67q9 -23 46 -60l34 -38q10 -12 26 -11q23 2 47 5t26 3q9 1 13.5 -5.5t2 -14t-11.5 -8.5q-41 -6 -59 -7q-11 0 -15 -5.5t-3 -11.5l1 -5q14 -71 -24 -143q-5 -10 -2 -14.5t14 -3.5q24 0 51 -12l30 -16q48 -25 79 -25h18q3 1 8.5 2.5t6.5 1.5l15 4 q22 6 27 4q12 -7 6 -20q-3 -4 -9.5 -7t-17.5 -5.5t-13 -3.5l-16 -3q-6 -2 -29 -2h-6q-37 4 -83 29q-2 1 -12.5 7t-13 7t-11.5 5t-12.5 4t-12 1.5t-14 -0.5t-14 -4t-17 -7t-18.5 -12l-20 -24q-6 -10 -12 -15q-9 -6 -16.5 -1t-7.5 14q0 10 10 22q6 7 14.5 15t14.5 17l19 26 q55 76 40 153q0 7 -3 11q-3 11 -22 9q-64 -9 -93 -18q-14 -2 -17 10z" />
<glyph unicode="&#xa4;" horiz-adv-x="301" d="M2 157q26 37 22 40q-23 21 -25.5 52t8 57t28.5 45l-10 -10q14 14 0 28l-21 20q-6 6 -4 13.5t9 9.5t15 -3l24 -24q12 -11 28 -3q61 25 111 -12q15 -12 19 -8l7 6.5t12.5 10t14 6t12.5 -4.5q8 -12 -3 -20l-23 -17q-12 -13 -10 -15q9 -30 4.5 -61.5t-20.5 -56.5 q-3 -4 -4 -10t-1 -9l1 -4q2 -3 5.5 -7.5t5.5 -6.5l13 -13q10 -10 0 -20t-20 0l-13 13q-10 10 -13 15q-6 8 -24 2q-36 -12 -81 3q-6 0 -9.5 1t-8 -2.5t-6.5 -4t-5.5 -5.5t-5 -7t-4.5 -7.5t-4 -6.5q-5 -8 -13.5 -6.5t-11.5 8t1 14.5zM26 272q-7 -61 69 -76q39 -8 63.5 10 t31.5 54q7 30 -1 59q0 1 -0.5 2.5t-1.5 2.5l-3 6q-10 19 -29 27t-40 6q-16 -1 -31.5 -9.5t-27.5 -21t-20 -28.5t-10 -32z" />
<glyph unicode="&#xa5;" horiz-adv-x="296" d="M-13 359q-1 6 3 10.5t10 4.5q18 1 63 1q23 0 24 4.5t-10 19.5q-65 110 -87 182q-2 14 10.5 17.5t17.5 -9.5q9 -33 42 -98t66 -117l4 -4q2 -2 4 3t4.5 17.5t5.5 19.5q8 25 40 90q25 50 38 87q3 8 11.5 9t14 -4.5t2.5 -14.5q-8 -25 -40 -90q-34 -68 -42 -100q-2 -10 2 -12 t17 -3h35q14 0 14 -14t-14 -14h-13h-17h-16q-13 1 -17 -3t-5 -14q-4 -23 -5 -38q-3 -19 19 -21q50 -2 59 -2q14 0 14 -14t-14 -14q-6 0 -26.5 0.5t-35.5 0.5q-19 1 -21 -19q0 -64 6 -208q1 -6 -3 -10.5t-10 -4.5q-6 -1 -10.5 3t-4.5 10q-6 145 -6 212q0 20 -20 20 q-57 2 -88 -1q-6 -1 -10.5 3t-4.5 10q-1 6 3 10.5t10 4.5q39 3 84 2q28 -1 30 18q1 13 5 39q-1 4 -2.5 7.5t-3.5 5.5t-4 3t-5.5 1.5t-5 0.5h-5h-4.5q-55 2 -93 0q-6 -1 -10.5 3t-4.5 10z" />
<glyph unicode="&#xa6;" horiz-adv-x="112" d="M18 22q0 18 5 128q4 68 2 124q-2 14 13 16q15 0 15 -14q2 -23 -2.5 -135t-4.5 -119q0 -14 -14 -14t-14 14zM29 379q0 26 8 197q0 14 15 14q15 -2 13 -16q-8 -170 -8 -195q0 -14 -14 -14t-14 14z" />
<glyph unicode="&#xa7;" horiz-adv-x="283" d="M-21 74q-1 9 5.5 14t14 2.5t8.5 -10.5q6 -37 32.5 -56.5t63.5 -19.5q22 0 41 7.5t30.5 19.5t12.5 25q1 26 -15 50q-12 15 -48 33q-2 1 -7.5 3t-12 5t-13.5 6q-59 27 -82 56.5t-11 79.5q7 32 42 61q19 17 15 19l-34 15q-26 12 -33.5 27.5t-4.5 43.5q5 72 53 112.5 t100 27.5q45 -10 69.5 -53.5t14.5 -102.5q-1 -9 -8.5 -11.5t-14 2t-5.5 13.5q8 49 -10 83t-52 42q-35 8 -66.5 -14.5t-46.5 -71.5q-4 -13 -6 -30.5t1 -23.5q4 -8 22 -18l17 -7q8 -3 18 -8q7 -4 42 -21t43 -22q51 -26 71 -53t6 -64q-11 -29 -52 -70q-10 -12 -9.5 -15.5 t10.5 -12.5q38 -39 35 -78.5t-38 -61.5q-30 -22 -74.5 -21.5t-78.5 24.5q-36 24 -45 74zM39 219q17 -18 64 -39l18 -9q15 -7 16 -6q53 47 67 80q9 24 -5.5 42t-57.5 40l-46 21q-38 -17 -56 -42t-16.5 -47.5t16.5 -39.5z" />
<glyph unicode="&#xa8;" horiz-adv-x="223" d="M-1 560q11 19 20 26q1 1 3 2.5t3 2t3 1t5 0t8 -1.5q13 -7 13 -16q-1 -6 -3.5 -14.5t-2.5 -10.5q-2 -12 -11 -18t-23 -2q-23 8 -15 31zM136 553q-2 1 -4.5 6.5t-2 12.5t7.5 10h1q0 1 1.5 1.5t3.5 1t5.5 1.5t8.5 3q6 0 10 1.5t5.5 -3t2.5 -6t0.5 -8t-1 -9t-2.5 -8.5 q-1 -3 -1 -5q-1 -8 -9 -10.5t-15 1.5z" />
<glyph unicode="&#xa9;" horiz-adv-x="360" d="M0 422q13 71 43 113.5t74 52.5q40 9 99.5 -23.5t81.5 -70.5q16 -46 16.5 -130t-13.5 -170q-13 -85 -39.5 -136.5t-67.5 -60.5q-34 -8 -72.5 17.5t-65.5 65t-38 77.5q-41 137 -18 265zM28 416q-21 -120 18 -251q5 -16 16.5 -37t27 -43.5t35 -38t38.5 -21.5t39 6t36 44 q30 63 42 186t-2 202q-2 13 -11 23q-54 59 -102.5 72.5t-85 -22.5t-51.5 -120zM71 369q17 76 47 103q22 18 43.5 15t37.5 -24q28 -33 30 -71q1 -6 -3 -10.5t-10 -4.5q-6 -1 -10.5 3t-4.5 10q-2 30 -24 55q-20 24 -39 5q-25 -22 -37.5 -81t-2.5 -118q10 -68 46 -79 q14 -4 15.5 -3t6.5 12t9 31q1 3 2 9t1.5 8.5l1.5 7.5t2.5 6.5t4 4.5t5.5 2.5t7 -0.5q6 -1 8 -5.5t2 -8t-2 -11t-2 -11.5q-7 -32 -13 -45q-9 -22 -21 -27t-35 2q-25 7 -41.5 32.5t-23 59.5t-6.5 69t6 64z" />
<glyph unicode="&#xaa;" horiz-adv-x="278" d="M-8 496q6 33 18.5 53t38.5 35q65 37 92 -12q14 -24 18.5 -101t12.5 -96q5 -15 13 -17.5t26 5.5q8 4 14.5 -1t6 -13t-8.5 -12q-46 -22 -70 11q-2 -2 -4 -3q-74 -41 -111 -29t-25 66q7 34 30.5 68.5t53.5 52.5q3 2 8.5 4.5t7.5 4t6 4t4 4.5t2 6t0 7q-9 35 -25 37 q-13 2 -35 -10.5t-30 -26.5q-9 -15 -15 -43q-2 -13 -17 -11q-13 2 -11 17zM41 377q-6 -29 8 -35q24 -9 86 27q5 2 5.5 4.5t-1.5 15.5q-5 34 -8 80v9q0 3 -3 4t-8.5 -0.5t-11.5 -5.5q-23 -15 -42.5 -43t-24.5 -56z" />
<glyph unicode="&#xab;" horiz-adv-x="309" d="M40 334q6 2 39 28t40 30q8 5 15 0.5t6.5 -12t-7.5 -12.5q-16 -11 -33 -25l-41 -33q-3 -3 -3.5 -7t0.5 -7l1 -2q7 -16 19 -32q17 -27 41 -53q9 -11 -1.5 -20.5t-20.5 0.5q-26 32 -43 57q-15 21 -22.5 35t-7 30t17.5 23zM131 265q-7 15 -8.5 25.5t5 20t15.5 16.5t28 19 q45 29 68 50q6 6 13.5 2.5t9 -10.5t-4.5 -14q-23 -21 -70 -52q-28 -19 -33 -24q-4 -6 2 -20q9 -18 46 -67q8 -12 -3.5 -20.5t-20.5 2.5q-39 54 -47 72z" />
<glyph unicode="&#xac;" horiz-adv-x="380" d="M-7 307q-1 6 3 10.5t10 4.5q3 0 60 5t97 8l95 8h52q30 1 23 -72q-5 -25 -5 -43q-1 -6 -6 -10t-10 -3q-6 0 -10 5t-3 11l2 20l3 23q3 26 0 37q0 4 -25 4q-2 0 -8.5 -0.5t-10.5 -0.5q-25 -1 -76 -5.5t-108 -9t-68 -5.5q-6 -1 -10.5 3t-4.5 10z" />
<glyph unicode="&#xad;" horiz-adv-x="326" d="M15 279q58 10 174 5q72 -2 76 -2q14 0 14 -14t-14 -14q-8 0 -78 2q-113 3 -168 -5q-9 -1 -13.5 5.5t-2 14t11.5 8.5z" />
<glyph unicode="&#xae;" horiz-adv-x="365" d="M19 449q41 88 83 123.5t108 12.5q22 -8 43 -28.5t26 -34.5l7 -18q14 -30 24 -89t5 -114q-15 -154 -51 -241q-23 -55 -54 -68t-70 8q-32 14 -53 36q-73 76 -92.5 196.5t24.5 216.5zM45 437q-40 -87 -22 -200t84 -181q19 -19 47 -31t45 -6q19 6 38 52q35 82 50 231 q11 114 -34 217q-15 20 -32 28q-4 3 -21 10q-50 18 -84.5 -12t-70.5 -108zM71 408q12 19 36.5 34.5t48.5 19.5q31 6 53 -9t26 -49q7 -49 -69 -87q-2 -1 -0.5 -4.5t3.5 -7.5l2 -4l13 -22q12 -21 19 -28.5t25 -16.5q8 -4 8.5 -12t-6 -13t-14.5 -1q-22 11 -32.5 21.5 t-25.5 35.5q-14 29 -23 34h-1q-1 1 -3 1l-14 3q-7 3 -7 -4q-2 -56 6 -88q2 -15 -11 -17q-15 -2 -17 11q-8 39 -7 94q1 36 -1 72q0 15 -5 17q-12 7 -4 20zM107 393q3 -25 3 -61l21 5q35 5 62 33q14 16 12.5 33.5t-14.5 26.5q-10 8 -26 5t-28 -8.5t-21 -12.5q-4 -4 -6.5 -9 t-2.5 -9v-3z" />
<glyph unicode="&#xaf;" horiz-adv-x="220" d="M-15 574q0 14 14 14q87 0 161 -3q14 0 14 -15q-2 -15 -16 -13q-70 3 -159 3q-14 0 -14 14z" />
<glyph unicode="&#xb0;" horiz-adv-x="240" d="M7 563q1 5 7 15q15 26 44.5 31t50.5 -9q45 -23 63 -68q1 -3 4.5 -10.5t5.5 -12.5q16 -38 8.5 -68t-36.5 -47q-27 -21 -66.5 -11.5t-65.5 45.5q-16 22 -20 54t-1 51.5t6 29.5zM31 496q0 -37 15 -52q22 -22 48 -30t45 4q15 11 19.5 28.5t-1 37.5t-9 29.5t-7.5 17.5 q-16 30 -46.5 44t-50.5 -3q-13 -13 -13 -45v-31z" />
<glyph unicode="&#xb1;" horiz-adv-x="237" d="M-24 -11q0 6 4.5 10t10.5 3q57 -2 59 -2h13q6 0 33.5 1t52.5 2.5t26 1.5q6 1 10.5 -3t5.5 -10q0 -6 -4 -10.5t-10 -4.5q-4 0 -10.5 -0.5t-16.5 -1t-18 -0.5q-9 0 -28 -1.5t-29.5 -1.5t-26 -0.5t-30 0t-29.5 2.5q-6 0 -10 4.5t-3 10.5zM-14 335q34 6 57 6q15 0 17.5 3 t2.5 17q0 10 -1 30.5t-1 32.5q0 6 4 10t10 4t10 -4t4 -10q0 -25 2 -65q1 -9 2.5 -12.5t5.5 -5t13 -1.5q6 0 18 -0.5t17 -0.5q9 -1 24 -1q6 0 10 -4t4 -10t-4 -10t-10 -4l-17.5 0.5t-34.5 0.5q-16 0 -19 -4.5t0 -17.5q5 -27 12 -50q2 -14 -10 -17q-13 -3 -18 9q-12 49 -14 62 t-5.5 16.5t-16.5 2.5q-8 -1 -28.5 -2.5t-29.5 -2.5t-13.5 5.5t-2 14t11.5 8.5z" />
<glyph unicode="&#xb2;" horiz-adv-x="220" d="M-15 523q7 21 23 40t34 27q12 6 23 5.5t20.5 -6t16.5 -17t10 -28.5q5 -20 -6 -45.5t-36 -63.5l-31 -45q-3 -4 -7 -10h4q5 0 20.5 -1.5t24.5 -1.5q6 0 39 1.5t39 1.5t10 -4t4 -10t-4 -10t-10 -4q-1 0 -5 -0.5t-12 -1t-16 -0.5l-44 -2q-23 0 -45 2q-29 6 -34 17 q-2 3 -2.5 6t0 6l1 6t2.5 6t3.5 5t4 5.5t3.5 4.5l31 45q44 65 38 87q-7 36 -30 26q-13 -6 -24.5 -20t-16.5 -29q-3 -9 -11.5 -10t-14 5t-2.5 13z" />
<glyph unicode="&#xb3;" horiz-adv-x="188" d="M-18 539q6 22 22 40t36 26q25 8 44 -3t28 -41q12 -46 -16 -74q-9 -10 -8 -15t6 -7l5 -2q29 -11 38 -39.5t-9 -53.5q-16 -21 -43 -35t-56 -16q-6 -1 -10.5 3t-4.5 10q-1 6 3 10.5t10 4.5q22 2 44 13.5t33 27.5q24 28 -17 49q-12 6 -39 3l-10 -4q-11 -5 -21.5 -1t-10.5 16 q0 8 8.5 14.5t18.5 6.5q63 39 51 81q-9 33 -34 25q-9 -4 -17 -10.5t-14.5 -16.5t-8.5 -20q-5 -13 -17.5 -9t-10.5 17z" />
<glyph unicode="&#xb4;" horiz-adv-x="167" d="M18 506l78 78q10 10 20 0t0 -20l-78 -78q-10 -10 -20 0t0 20z" />
<glyph unicode="&#xb5;" horiz-adv-x="312" d="M-70 -135q17 46 74.5 234.5t70.5 226.5q5 13 18.5 8.5t9.5 -18.5q-27 -71 -73 -229l-4 -16q-5 -17 11 -26q47 -22 78 -6t56 71q20 48 37 119q22 90 30 108q3 9 11 10t13.5 -5.5t1.5 -14.5q-6 -16 -28 -105q-12 -49 -30 -102q-5 -11 -5 -13v-2q3 -36 4 -47q0 -16 8 -42 q4 -8 -1.5 -14.5t-13.5 -5.5t-11 10q-8 17 -9 31q-4 15 -6 14.5t-9 -10.5q-53 -63 -131 -26q-16 5 -19 3t-7 -14q-28 -92 -48 -149q-5 -13 -18.5 -8.5t-9.5 18.5z" />
<glyph unicode="&#xb6;" horiz-adv-x="428" d="M7 381q-13 43 4.5 88t51.5 79q30 29 76 46q104 29 230 11q9 -1 11.5 -8.5t-2 -14t-13.5 -5.5q-36 4 -61 5q-10 1 -15 -4.5t-4 -15.5q3 -44 1 -90q-9 -135 -9 -302q-2 -147 -4 -199q0 -6 -4.5 -10t-10.5 -3q-4 0 -7 2t-4.5 5.5t-1.5 7.5q3 67 3 198t3 193q0 25 4 83t4 81 q0 4 -0.5 15t-1.5 15.5t-3 11.5t-6.5 9.5t-12.5 1.5q-3 0 -10 -1t-10 -1.5t-8 -2t-7 -3.5t-4 -6t-2 -9q0 -92 -1 -105q-6 -114 -6 -238v-247q0 -14 -14 -14t-14 14v318q0 20 -22 15q-38 -7 -77 14.5t-53 65.5z" />
<glyph unicode="&#xb7;" horiz-adv-x="125" d="M27 309l3.5 3.5t3.5 3t4 1.5t8 2q7 2 15 -6q11 -12 14 -27.5t-6 -22.5q-3 -3 -13 -7q-23 -8 -34.5 0t-10 25.5t15.5 27.5z" />
<glyph unicode="&#xb8;" horiz-adv-x="215" d="M3 -65q0 2 9 13q1 2 3.5 4.5t6 6.5t6.5 7l11 13q4 5 15 16q6 7 14 5.5t10.5 -8.5t-2.5 -15q-2 -2 -14 -17q-7 -7 -6 -9t6 -1h4q56 7 76 -6q30 -16 26.5 -38t-19 -39.5t-35.5 -27.5l-13 -5q-2 -1 -6 -2t-5 -2q-8 -4 -14.5 1.5t-5.5 13.5t10 11l11 5q2 1 9 4q26 14 36 30 q9 10 0 18.5t-20 9.5q-31 3 -81 -6l-17 -2q-15 0 -15 20z" />
<glyph unicode="&#xb9;" horiz-adv-x="203" d="M3 347q0 5 2 8t6.5 4t8 1t10.5 -0.5t10 -0.5q9 0 14 2t5 4v2q-4 34 3 100q6 60 5 82q-15 -20 -16 -22q-10 -16 -16 -17q-9 -2 -15 5t0 16q11 18 23 34l14 19l11 11q4 2 5 2q19 5 22 -20v-13q2 -36 -4 -100q-7 -59 -4 -95v-7q0 -4 20 -4h35q14 0 14 -14t-14 -14 q-96 0 -126 2q-6 0 -10 4.5t-3 10.5z" />
<glyph unicode="&#xba;" horiz-adv-x="263" d="M-12 438q1 41 18.5 80.5t56.5 59.5q50 27 95 5q12 -6 28 -28q20 -29 27 -66t-3 -71q-16 -57 -58 -83.5t-96 -4.5q-32 14 -50.5 44t-17.5 64zM27 493q-18 -39 -6.5 -80.5t47.5 -56.5q40 -17 71 3.5t43 66.5q12 45 -2 82t-49 47q-42 5 -65.5 -8t-38.5 -54z" />
<glyph unicode="&#xbb;" horiz-adv-x="366" d="M31 194q13 16 54 57q30 30 35 40q6 11 -3 18q-17 12 -75 24q-8 1 -10.5 8.5t2.5 14t14 5.5q64 -12 87 -30q27 -18 11 -53q-10 -18 -40 -48q-45 -45 -53 -54q-6 -7 -14 -5.5t-10.5 8.5t2.5 15zM121 376q-8 13 4 20q3 2 6 2.5t5 0t7 -2t8 -2.5l32 -6q12 -3 34 -7 q17 -4 38 -10t30 -8q13 -8 15 -10q11 -18 -5 -51q-19 -35 -82 -106q-8 -9 -15.5 -17.5t-11.5 -12.5l-3 -4q-6 -7 -14 -5.5t-10.5 8.5t2.5 15q1 2 30 34q62 71 78 101q7 15 7 17v3q-18 7 -65 18q-16 3 -66 14q-21 4 -24 9z" />
<glyph unicode="&#xbc;" horiz-adv-x="353" d="M-1 22l191 373q14 25 26 52q36 79 65 116q5 7 13 5.5t11 -8.5t-2 -15q-28 -36 -61 -109q-4 -8 -13 -28t-13 -27l-191 -371q-4 -8 -12 -8t-13 6t-1 14zM32 494l32 40q6 7 22 7q6 0 10.5 -4.5t4.5 -10.5q9 -106 9 -109v-5q0 -2 21 -1h10q14 2 16 -13q0 -15 -14 -15 q-22 -2 -93 -12q-6 -1 -11 2.5t-5 9.5q-1 6 2.5 11t9.5 5q4 0 15.5 2.5t21.5 4.5q-3 13 -6 58q-2 39 -23 12q-6 -7 -14 -5.5t-10.5 8.5t2.5 15zM132 142l0.5 2l0.5 2q5 10 15 20q6 7 33 29.5t41 36.5q10 10 16.5 15.5t13.5 8t10.5 -4t2.5 -21.5q0 -6 -0.5 -12t-0.5 -7 q0 -25 -1 -39q0 -10 3.5 -14.5t6.5 -5t9 -0.5h2q5 1 10 -3t6 -9q0 -6 -4 -11t-10 -5q-3 -1 -13 -1q-15 -2 -16 -20q-3 -36 -3 -56q0 -14 -14 -14t-14 14q0 10 2 52q2 21 -17 21q-28 -1 -44 0q-17 0 -27.5 5t-7.5 17zM185 163q-13 -13 9 -15h12h4l11 1q12 0 13 19v5 q1 22 -6 22t-17 -10l-1 -1l-9 -7q-3 -2 -8 -7t-8 -7z" />
<glyph unicode="&#xbd;" horiz-adv-x="393" d="M-1 18q11 23 42 68q30 45 67 128q7 14 14.5 30.5t11.5 25t6 12.5l29 60q26 52 35 66l33 58q33 56 84 118q6 7 14 5.5t10.5 -8.5t-2.5 -15q-49 -59 -81 -116l-33 -56q-23 -38 -63 -124l-32 -68q-38 -85 -69 -132q-27 -42 -40 -66q-7 -12 -19.5 -5.5t-6.5 19.5zM57 405 q0 6 4.5 10t10.5 3q2 0 5 -0.5t5 -0.5q10 0 10 1q0 3 -4 57q0 4 -0.5 11.5t-0.5 10.5q-1 10 -4 14t-7 2q-8 -5 -15 -1t-7.5 11.5t6.5 13.5l19 13q5 3 10 3q23 -3 23 -18q1 -10 4 -59t4 -56v16q0 -20 16 -20h14q14 0 14 -14t-14 -14q-52 0 -80 2q-6 0 -10 4.5t-3 10.5z M155 44q-5 7 -3 14t9 11l12 6q38 18 65 80q14 35 4 46q-6 5 -11 4.5t-13.5 -12.5t-13.5 -20t-10 -17q-2 -3 -5 -5t-6 -2.5t-6 0.5t-5.5 3t-4 4.5t-1.5 6.5t2 7q21 34 34 48.5t28 16.5q19 4 36 -16q13 -16 8 -42t-17 -49t-28 -43q-13 -16 -14 -17q-2 -7 7 -7q5 0 31.5 1 t31.5 1q14 0 14 -14t-14 -14q-3 0 -63 -3q-28 0 -37 1q-23 2 -30 11z" />
<glyph unicode="&#xbe;" horiz-adv-x="370" d="M-14 4q38 103 149 288q48 81 72 125q22 37 32 53q46 72 56 114q5 12 17.5 9.5t10.5 -17.5q-12 -48 -60 -123q-20 -32 -30 -50l-74 -127q-110 -183 -147 -282q-2 -8 -10 -9.5t-13.5 4.5t-2.5 15zM16 388q-4 8 1 14t13 6t12 -8q9 -17 20 -19t18.5 5t10.5 16q4 11 -1 27 q-3 11 -3 12h-2l-1 -1h-10q-12 2 -15 13t5 18q3 3 9 6q3 0 5 2q15 17 17 36q0 19 -14 17q-19 -2 -19 -30q0 -14 -14 -14t-14 14q0 24 12 40t31 19t33 -10t13 -36q0 -18 -11 -37q-7 -14 1 -28q15 -31 4 -58q-8 -22 -26.5 -33t-39.5 -4t-35 33zM127 99q-28 17 5 48 q7 7 21.5 20t21.5 19t17 14.5t17.5 13.5t14.5 8q11 5 13 -13q1 -6 1 -31q0 -4 1 -12.5t1 -13.5q0 -24 3 -23q7 1 13 1q14 2 16 -13q0 -7 -4 -10q-3 -4 -18 -7q-13 -3 -15 -19v-6q-3 -24 -3 -39q0 -14 -14 -14t-14 14q0 8 2 42q1 8 -4 12t-16 3q-43 -4 -59 6zM150 123l39 -1 h2h6t5 0.5t3.5 1.5t3 3l1.5 6t1 10v2q0 34 -25 11q-30 -27 -36 -33z" />
<glyph unicode="&#xbf;" horiz-adv-x="237" d="M4 -29q-8 121 51 144q6 3 42 8q19 2 19 11q1 5 1 19q2 68 -5 151q-2 14 13 16q15 0 15 -14q8 -92 6 -154q0 -30 -9 -42t-36 -16q-29 -3 -36 -6q-37 -15 -33 -115q2 -28 16 -53t34 -38q45 -29 82 23q6 8 14 6.5t11 -8t-1 -14.5q-25 -36 -60 -44t-61 12q-27 17 -44.5 48.5 t-18.5 65.5zM97 447l5 8q14 15 41 6q2 -1 6.5 -2t7 -2t5.5 -3t4 -6q5 -11 -7 -19q-23 -20 -42 -19q-15 2 -22 12.5t2 24.5z" />
<glyph unicode="&#xc0;" horiz-adv-x="271" d="M4 19q4 49 15 147q22 189 26 320q1 28 5.5 53t14 48.5t26.5 33t40 0.5q28 -10 44 -78q7 -29 15 -83q10 -71 14 -226q5 -150 20 -221q2 -15 -11 -17q-15 -2 -17 11q-17 83 -21 226q-1 22 -2.5 52t-1.5 39q0 21 -21 18q-49 -7 -70 -14q-16 -4 -16 -6q-1 -16 -3.5 -38 t-6 -57t-6.5 -60l-16 -150q0 -6 -4.5 -10t-10.5 -3q-6 0 -10 4.5t-3 10.5zM68 378q-1 -11 4.5 -15.5t16.5 -2.5q27 7 57 11q12 1 18 7t5 15q-9 98 -22 143q-7 28 -13 41q-7 14 -16 18t-16 -3q-9 -8 -17 -30q-7 -23 -10 -50.5t-5 -76.5t-2 -57zM81 714q-8 5 -6.5 13t8 11 t14.5 -1q6 -4 32 -26l31 -25q7 -5 5.5 -13t-8.5 -11t-15 2l-31 25q-7 6 -17 14t-13 11z" />
<glyph unicode="&#xc1;" horiz-adv-x="309" d="M9 19q2 24 14 125t14 120q1 14 5 82t9 98q4 28 8.5 45.5t17 42.5t32.5 48q51 58 87 15q13 -14 21 -98q4 -46 11 -170q14 -250 33 -296q4 -9 -1.5 -15.5t-13.5 -5.5t-11 9q-13 31 -20.5 101.5t-15.5 205.5v-13q0 20 -4 20q-32 0 -85 -11q-2 -1 -11.5 -2.5t-12.5 -2.5 t-8.5 -3.5t-7.5 -7t-3 -10.5q0 -6 -0.5 -17.5t-1.5 -16.5q-3 -45 -28 -245q0 -6 -4.5 -10t-10.5 -3q-6 0 -10 4.5t-3 10.5zM71 366q-1 -11 4 -16t14 -3l18 3q50 11 88 11h-19q22 0 20 21q-6 93 -8 113q-3 41 -7 57q-4 21 -9 27t-14 3q-14 -5 -28 -21.5t-23.5 -33.5 t-14.5 -31q-15 -48 -21 -130zM94 670q45 43 74 64q8 5 15 1t7.5 -11.5t-6.5 -13.5q-22 -15 -70 -60q-10 -10 -20 0t0 20z" />
<glyph unicode="&#xc2;" horiz-adv-x="314" d="M3 16q1 37 11 110q17 121 24 236q6 88 17.5 140t37.5 85q20 27 47 23.5t50 -39.5q24 -37 29.5 -92.5t4.5 -188.5q-1 -113 7 -172.5t33 -92.5q6 -8 2.5 -15.5t-11 -8t-13.5 5.5q-30 39 -38.5 98t-8.5 186v23q0 7 -21 4q-68 -9 -94 -13q-16 -3 -18 -21q-1 -7 -2.5 -25.5 t-2.5 -27.5l-14 -109q-11 -66 -12 -108q0 -6 -4.5 -10t-10.5 -3q-6 0 -10 4.5t-3 10.5zM56 660q15 43 23.5 60.5t21.5 23.5q18 8 34.5 -6.5t36.5 -51.5q8 -12 -4.5 -19.5t-19.5 5.5q-18 30 -32 44l-13 -15q-6 -12 -19 -51q-4 -8 -12 -9t-13.5 5t-2.5 14zM67 355 q-2 -22 20 -19q30 4 107 13h-18q20 0 20 20q-1 69 -6.5 114t-23.5 72q-16 25 -28 27t-22 -13q-23 -28 -33 -73.5t-16 -135.5v-5z" />
<glyph unicode="&#xc3;" horiz-adv-x="315" d="M-4 5q10 68 24 227q12 152 31 229q14 60 29 95q13 33 30 47q29 20 52 -11q14 -20 17 -56q3 -15 3 -52q0 -2 4 -59q6 -130 14 -195q21 -185 62 -213q8 -5 6.5 -13.5t-8 -11.5t-14.5 1q-52 32 -74 234q-1 8 -3.5 35t-3.5 43q-2 20 -23 17q-25 -5 -67 -7q-20 0 -21 -19 q-3 -28 -6 -66q-14 -174 -24 -231q-1 -8 -8.5 -10.5t-14 2.5t-5.5 14zM16 630q20 45 45 54.5t56 -6.5q22 -12 37.5 -6t33.5 41q4 8 12 8t13 -6t1 -14q-23 -46 -50 -56t-58 6q-22 12 -35.5 6.5t-28.5 -39.5q-4 -8 -12 -8.5t-13 6t-1 14.5zM62 365q-1 -10 3.5 -16t14.5 -5 l31 6q31 5 32 5q19 0 17 18q-1 46 -8 134q0 50 -14 67q-4 7 -7 7q-2 0 -3 -1q-9 -7 -22 -35q-25 -62 -44 -180z" />
<glyph unicode="&#xc4;" d="M-5 7q5 41 13 224q6 139 26 227q5 18 9.5 33.5t11 34t13.5 31t17 25.5t20 17.5t23.5 7t27.5 -5.5q31 -12 40 -72q5 -18 6 -43q0 -4 1 -17t1 -16q3 -54 3 -72q0 -9 -2.5 -78t-2.5 -77q-4 -140 26 -212q4 -9 -1.5 -15.5t-13.5 -5.5t-11 9q-21 50 -26.5 126.5t-2.5 128 t2 51.5h-115q-19 -1 -20 -20q-2 -27 -3 -58q-7 -178 -14 -227q0 -6 -5 -9.5t-11 -2.5q-6 0 -9.5 5t-2.5 11zM46 357q-2 -21 19 -21h92q19 0 21 20q2 65 -2 95q-1 3 -1 15q-1 8 -2.5 20.5t-3 21t-3 19t-3.5 18t-5 13.5q-6 14 -14 17q-20 9 -37.5 -11.5t-29.5 -59.5 t-19.5 -75.5t-11.5 -71.5zM86 702q0 6 4 10t10 4q4 0 7 -2t5 -5t2 -7q0 -6 -4 -10t-10 -4t-10 4t-4 10zM157 707q0 6 4 10t10 4q4 0 7 -2t5 -5t2 -7q0 -6 -4 -10t-10 -4t-10 4t-4 10z" />
<glyph unicode="&#xc5;" horiz-adv-x="298" d="M-1 30q13 40 18 103q1 25 4 49q10 84 25 206l11 96q3 29 6 46.5t9 39.5t14.5 33t22.5 17t33 2q32 -7 43.5 -35t21.5 -97q1 -7 2 -11q7 -47 9 -113v-62q-1 -27 -1 -56q0 -140 33 -217q4 -9 -1.5 -15.5t-13.5 -5.5t-11 9q-36 82 -36 229q0 27 1 47v20q0 19 -21 17h-4 q-42 -5 -51 -6q-3 -1 -13 -3t-14 -3t-10.5 -4t-9 -7.5t-3.5 -11.5q-3 -27 -8 -69t-6 -50q-2 -8 -3 -46q-6 -72 -21 -112q-3 -9 -11 -10t-13.5 5.5t-1.5 14.5zM72 369q-1 -11 4 -16t16 -3q52 8 77 12q20 2 20 22q-2 52 -9.5 101t-11.5 62q-8 28 -21 40t-26.5 5t-21.5 -34 q-6 -17 -14 -78zM73 725v5q0 5 2.5 8.5t6 7.5t5.5 6l8 8q17 15 39 9.5t34 -26.5q11 -20 2.5 -45t-26.5 -32q-18 -8 -37.5 2.5t-29.5 36.5q-2 2 -2 4q0 1 -2 16zM106 729q-4 -12 1 -21.5t15 -13.5q14 -9 21 13q8 20 -10 31q-17 12 -26 -6q0 -1 -1 -3z" />
<glyph unicode="&#xc6;" horiz-adv-x="428" d="M-13 3q3 11 10.5 61t9.5 61q6 29 40 159t40 159q11 52 21 85q21 68 42 79q23 11 99 9l53 -3q9 0 19.5 -0.5t16 -1t8.5 -0.5q14 0 14 -14t-14 -14q-8 0 -68.5 3t-82.5 1h-3q-10 0 -4 -245q0 -20 20 -20h101q14 0 14 -14t-14 -14h-101q-20 -2 -19 -21l2 -89q2 -94 2 -107 v-17q-6 -49 1 -49q4 -2 17 -4q19 -3 54 -3l60 2q10 0 20 0.5t15 1t7 0.5q14 0 14 -14t-14 -14q-2 0 -7 -0.5t-15 -1t-20 -0.5q-81 -5 -118 0q-29 5 -38 17t-7 46l1 8q1 8 1.5 17t0.5 11q-1 10 -1.5 34.5t-0.5 37.5q0 20 -20 20h-79q-17 -1 -22 -18l-7 -32 q-3 -12 -10.5 -61.5t-9.5 -60.5q-2 -13 -17 -11q-13 2 -11 17zM59 219q-3 -10 1.5 -16t15.5 -6h66q20 0 20 21q-5 202 -2 311q0 9 -2 17.5t-4 12.5l-2 4q-19 -42 -37 -126q-15 -69 -40 -160z" />
<glyph unicode="&#xc7;" horiz-adv-x="286" d="M4 366q4 40 7.5 66.5t12 65t20 62.5t30.5 44.5t43 25.5q21 4 40.5 -2.5t33.5 -23t19 -40.5q2 -10 2 -16q0 -5 -1 -17.5t-1 -15.5q0 -6 -4 -10t-10 -4t-10 4t-4 10v4.5t0.5 11t0.5 12.5v10.5t-1 4.5q-8 37 -40.5 43.5t-54.5 -24.5q-17 -22 -30 -62t-17 -74q-2 -12 -8 -77 q-11 -141 7 -208q9 -32 28.5 -68.5t40.5 -56.5q23 -24 46 -18t43 48q6 14 9 38q0 15 5 45q2 13 17 11q11 -1 11 -13.5t-3 -23.5q0 -49 -24 -88.5t-55 -45.5q-2 -1 -5 -1q-6 0 -16 -20q-8 -18 15 -21q22 -2 34 -17t4 -39q-2 -4 -4 -7t-5 -6.5t-4.5 -5t-6.5 -5t-6 -4.5 q-10 -7 -41 -25q-8 -4 -15 1t-7 12.5t8 12.5q30 17 37 21q16 13 16 16q0 4 1.5 7.5t-1.5 5.5l-4.5 3t-7 1.5t-9 0.5t-10 0.5t-10.5 0.5q-34 0 -27 27q2 2 4.5 7.5t5.5 13t5 10.5q6 5 3 12t-5 9.5t-8.5 8t-8.5 7.5q-25 24 -46.5 63.5t-31.5 74.5q-20 76 -7 218z" />
<glyph unicode="&#xc8;" horiz-adv-x="234" d="M5 561q0 12 2 19t6.5 11t12.5 7q21 9 67.5 13t80.5 0q6 0 10 -4.5t4 -10.5q-1 -6 -5.5 -10t-10.5 -3q-18 1 -60 -1t-61 -6q-4 -1 -9 -3t-7 -2q-1 -3 -1 -10q0 -4 4 -31t4 -38q3 -40 5 -126q0 -22 22 -19q22 5 35 9q9 3 15 -2.5t4.5 -13.5t-9.5 -10q-21 -8 -48 -12 q-19 -3 -19 -22q0 -21 -3 -110t-2 -127q0 -5 3 -10.5t5 -8.5l3 -2q14 -2 38 0q4 0 15 1t25 2l28 2q5 1 10 -3t6 -9q0 -6 -4 -11t-10 -5q-83 -9 -111 -5q-24 2 -33 14q-1 2 -3 8q0 3 -1 5v54q10 238 1 399q-9 45 -9 71zM51 717q-9 11 1.5 20.5t20.5 -0.5q7 -9 32 -31l20 -14 l19 -15q11 -8 2.5 -19.5t-20.5 -2.5q-1 0 -3 2t-6.5 5t-8.5 6l-20 16q-24 18 -37 33z" />
<glyph unicode="&#xc9;" horiz-adv-x="267" d="M5 83q0 111 9 318q1 22 1 43v15q-1 7 -1 30t-1 32v70q7 14 16 14q2 0 8 0.5t10 0.5h8q11 -1 50.5 -2.5t69 -3t35.5 -3.5q13 -5 9.5 -17.5t-17.5 -10.5q-5 2 -31 3q-57 5 -111 5q-18 0 -18 -9v-47q0 -20 1 -32v-45q0 -2 -0.5 -12.5t-1 -32t-0.5 -44.5q-2 -23 20 -21 q3 1 8 1q2 0 20 1.5t22 1.5q6 1 10.5 -3t5.5 -10q0 -4 -2 -7.5t-5 -5.5t-7 -2q-33 -3 -42 -3q-31 0 -33 -22q-4 -124 -4 -201v-17v-16.5t0.5 -12.5t2.5 -13v-1q1 -1 2 -1q11 -3 31.5 -4t38 -1t45 0.5t38.5 0.5q14 0 14 -14t-14 -14q-6 0 -43.5 -1t-45.5 -1q-26 0 -52 2 q-30 6 -38 15q-6 10 -6 30q-2 22 -2 47zM122 688q32 28 62 50q13 10 22 -4q6 -11 -4 -18q-39 -29 -60 -50q-11 -9 -20.5 1.5t0.5 20.5z" />
<glyph unicode="&#xca;" horiz-adv-x="260" d="M5 510q0 35 1 46v18q1 1 1 2q0 2 1 3q0 3 6 8t12 5q31 6 86 10.5t88 1.5q6 0 10 -4.5t4 -10.5q-1 -6 -5.5 -10t-10.5 -3q-21 1 -53 -0.5t-63.5 -4t-46.5 -6.5v-5q0 -1 -0.5 -6.5t-0.5 -10.5v-33q0 -78 2 -138v-20q3 1 7 0q34 -6 68 -3q14 2 16 -13q0 -15 -14 -15 q-29 -4 -65 1q-12 -4 -12 -21q0 -45 0.5 -84.5t1 -57t0.5 -18.5v-35q-2 -30 -2 -51q0 -5 3.5 -9.5t6.5 -6.5l4 -2q125 -5 141 -5q14 0 14 -14t-14 -14q-76 0 -144 4q-2 0 -7.5 0.5t-8 1t-6.5 1.5t-6.5 2t-5 3t-3.5 4.5t-2 6.5v5q-1 3 -1 13q0 23 2 61v12l1 23v44 q-3 69 -3 187q0 24 -0.5 72t-1.5 66zM22 667q29 67 55 80t68 -25q1 -1 3.5 -3t7 -6.5t9.5 -8.5l26 -26q7 -6 5 -13.5t-9 -9.5t-14 3l-28 24q-36 36 -48 39q-8 3 -17 -7q-14 -16 -32 -59q-3 -8 -11 -9t-13.5 5.5t-1.5 15.5z" />
<glyph unicode="&#xcb;" d="M8 589q6 13 41 19q31 4 126 4q23 -1 40 -1q6 1 10.5 -3t5.5 -10q0 -6 -4 -10.5t-10 -4.5q-6 -2 -41 0q-95 0 -123 -4q-2 0 -6.5 -0.5t-6.5 -1.5l-6 -18l11 -110v-9t-0.5 -16t-1 -24.5t-0.5 -31.5q0 -22 21 -19q14 1 46 1q6 0 10 -4t4 -10t-4 -10t-10 -4q-28 0 -49 -3 q-18 -1 -18 -21q0 -17 -1 -61.5t-1.5 -68.5t0.5 -58t3 -60q2 -15 3 -19q2 0 7.5 -2t9.5 -3q27 -5 103 -3q22 1 35 1q14 0 14 -14t-14 -14q-13 0 -35 -1q-76 -3 -108 3q-29 5 -38 20q-8 18 -8 77q-3 72 2 261q0 22 0.5 44.5t1 33.5t0.5 15l-1 7q-1 8 -3 25.5t-4 36.5 q-7 57 -1 71zM46 699q0 6 4 10t10 4t10 -4t4 -10t-4 -10t-10 -4t-10 4t-4 10zM132 700q0 6 4 10t10 4q4 0 7 -2t5 -5t2 -7q0 -6 -4 -10t-10 -4t-10 4t-4 10z" />
<glyph unicode="&#xcc;" horiz-adv-x="201" d="M-7 598q-1 6 3 10.5t10 4.5q64 3 135 0q14 0 14 -15q-2 -15 -16 -13q-13 1 -39 1q-8 0 -12 -1t-6 -4.5t-2 -5.5t-1 -9q-11 -254 11 -512q0 -20 20 -21h10.5h11.5h9q14 0 14 -14t-14 -14q-12 0 -66 1.5t-67 1.5q-14 0 -14 14t14 14h33q11 0 15.5 2t4 6.5t-0.5 11.5 q-21 271 -10 509v11.5t-4.5 7t-15.5 2.5q-3 0 -9.5 -0.5t-10.5 -0.5t-8.5 1t-6.5 4t-2 8zM16 720q-8 5 -6.5 13.5t8 11.5t14.5 -1q5 -3 27.5 -21.5t28.5 -22.5q8 -6 6.5 -14t-8 -11t-14.5 1q-5 4 -27.5 21.5t-28.5 22.5z" />
<glyph unicode="&#xcd;" horiz-adv-x="211" d="M23 9q0 6 5 9.5t11 2.5q22 -2 42 -3q-2 16 -3 23q-20 126 -13 372l3 148v4q1 12 -0.5 14t-9.5 1h-3h-3.5h-4.5h-2q-9 -1 -13.5 5.5t-2 14t11.5 8.5q55 7 100 3q6 0 10 -4.5t4 -10.5q-1 -6 -5.5 -10t-10.5 -3q-27 2 -35 1t-8 -10q0 -24 -3 -162q-6 -259 17 -387v-4 q0 -2 8 -3.5t19.5 -2.5t13.5 -1q6 0 10 -4.5t4 -10.5q-1 -6 -5.5 -10t-10.5 -3q-7 1 -54.5 3t-59.5 4q-6 0 -9.5 5t-2.5 11zM79 690l1.5 1.5t4 3.5t5.5 4.5t7.5 6.5t9.5 8q12 10 25 25q10 10 20.5 0.5t1.5 -20.5q-5 -5 -29.5 -27.5t-25.5 -23.5q-11 -9 -20.5 1.5t0.5 20.5z " />
<glyph unicode="&#xce;" horiz-adv-x="268" d="M9 584q0 4 1.5 7.5t4.5 5.5t7 2q10 0 50 -0.5t78 -1.5t39 -1q6 0 10 -4t4 -10t-4 -10t-10 -4q-30 0 -54 1q-6 0 -10 -0.5t-6.5 -1t-3.5 -3t-1 -3.5v-5.5v-5.5q0 -32 1.5 -150t1.5 -145q0 -37 -1 -71q-3 -104 5 -155l1 -3q0 -2 19 -2q3 0 11.5 -0.5t13.5 -0.5q38 -2 41 -2 q6 0 10 -4t4 -10t-4 -10t-10 -4q-9 0 -42.5 1t-42.5 1q-49 0 -78 -10q-7 -3 -13 2.5t-5 14t10 11.5q28 9 57 10q-6 22 -7 62t1 97.5t2 72.5q0 28 -1.5 146.5t-1.5 150.5q0 8 -0.5 11t-5.5 6t-14 3q-30 0 -42 -1q-6 -1 -10.5 3t-4.5 10zM51 653l23 48q12 21 27 21 q11 0 28 -17l31 -31q10 -10 0.5 -20.5t-20.5 -1.5q-2 2 -16 16.5t-22 22.5q-1 -1 -3 -5q-2 -3 -22 -45q-4 -8 -12 -8.5t-13 6t-1 14.5z" />
<glyph unicode="&#xcf;" horiz-adv-x="271" d="M-8 585q-2 15 11 17q32 7 74 7h39q16 -1 34 -1q6 0 10 -4t4 -10t-4 -10t-10 -4h-29q-8 0 -12 -0.5t-6 -3t-2.5 -3.5t0 -6t0.5 -7q0 -14 4 -68.5t4 -60.5q4 -67 2 -141q-3 -53 -2.5 -86.5t1.5 -48t6 -53.5t8 -70v-5.5t0.5 -5.5t1.5 -3.5t3 -3l6 -1.5t9 -1q27 0 69 -8 q13 -2 11 -17q-2 -13 -17 -11q-75 15 -176 1q-9 -1 -13.5 5.5t-2 14t11.5 8.5q29 4 47 5q14 1 17 5.5t1 16.5q-18 116 -10 260q2 70 -1 137q-8 89 -9 131v3q0 5 -0.5 7.5t-2 5t-6 3t-11.5 0.5q-29 -2 -43 -5q-15 -2 -17 11zM20 693q0 6 4 10t10 4t10 -4t4 -10t-4 -10t-10 -4 t-10 4t-4 10zM115 697q0 6 4 10t10 4q4 0 7 -2t5 -5t2 -7q0 -6 -4 -10t-10 -4t-10 4t-4 10z" />
<glyph unicode="&#xd0;" horiz-adv-x="342" d="M-24 310q-2 15 11 17q16 3 48 7q13 1 16.5 5t3.5 15v56q-1 32 -1 88v59q0 6 -6 12.5t-7 8.5q-4 6 -1 13.5t9 8.5q114 35 187 -73q59 -85 59 -202q0 -72 -59.5 -163.5t-133.5 -148.5q-4 -3 -8.5 -10.5t-9.5 -10.5q-8 -3 -14 0t-8 10q-8 59 -8 122q0 12 1 61t1 61v41 q0 5 -0.5 8.5t-2 6t-2 3.5t-3 1.5t-3.5 0.5t-5 -0.5t-5 -0.5q-25 -3 -42 -7q-15 -2 -17 11zM82 559q2 -62 2 -202q0 -15 4 -18t17 -3l53 2q14 2 16 -13q0 -15 -14 -15q-5 0 -13 -0.5t-20.5 -1t-22.5 -0.5q-7 0 -11.5 -1t-6.5 -3.5t-2.5 -3.5t0 -6.5t0.5 -6.5v-106 q-1 -67 0 -113q1 -13 8.5 -16t17.5 5q63 57 110 133t47 135q0 55 -18.5 112t-58 99.5t-89.5 42.5q-19 0 -19 -20z" />
<glyph unicode="&#xd1;" horiz-adv-x="311" d="M2 565q-6 13 6.5 19t19.5 -6l-4 7l14 -16q18 -26 71.5 -115t83.5 -143q1 -1 2 -3q4 -7 6.5 -10.5t6.5 -7t6 -2t3.5 9t1.5 21.5q0 11 -9.5 122t-9.5 141q0 6 4 10t10 4t10 -4t4 -10q0 -48 7 -112q9 -91 11 -123t3 -100q0 -141 15 -232q1 -5 -1.5 -9t-6.5 -5.5t-8.5 -1 t-7.5 3.5t-4 8q-11 68 -16 194q0 5 -2 10.5t-4 8.5l-3 3q-13 19 -98 165l-45 76q-23 34 -24 4q5 -104 -3 -316q-4 -89 -4 -126q0 -14 -14 -14t-14 14q0 26 3 126q9 222 4 314q-5 75 -14 95zM18 620q13 43 34 51.5t51 -7.5q23 -13 41.5 -9.5t40.5 31.5q5 7 13 5.5t11 -8.5 t-2 -15q-28 -36 -58 -41.5t-58 10.5q-21 11 -28.5 7.5t-16.5 -32.5q-5 -12 -18 -9q-12 3 -10 17z" />
<glyph unicode="&#xd2;" horiz-adv-x="293" d="M1 287q-4 112 15 202.5t57 123.5q13 12 22 14.5t31 2.5q69 0 96 -82q10 -30 14 -82q11 -77 7.5 -197t-22.5 -188q-9 -29 -23 -55t-37.5 -42t-48.5 -4q-49 23 -78 107.5t-33 199.5zM30 288q4 -108 29.5 -186t64.5 -96q18 -8 38.5 19t30.5 64q15 53 21.5 138t1.5 162l-6 73 l-6 43q-3 17 -9 34q-21 63 -69 63q-16 0 -20.5 -1.5t-14.5 -9.5q-31 -27 -48 -112.5t-13 -190.5zM85 727q-8 6 -8 13.5t7 12.5t15 0t32 -21l30 -21q8 -4 7.5 -12.5t-7 -12t-14.5 0.5q-5 3 -30.5 19.5t-31.5 20.5z" />
<glyph unicode="&#xd3;" horiz-adv-x="293" d="M-2 367q10 198 95 247q42 22 73.5 9.5t51.5 -53.5q14 -28 23 -98q9 -95 -1 -249q-14 -174 -51 -209q-28 -26 -78 -3q-68 30 -94 131.5t-19 224.5zM26 365q-4 -71 3.5 -136t31.5 -119.5t62 -72.5q13 -6 26.5 -7t19.5 4q44 44 49 370q0 22 -6.5 75.5t-18.5 77.5 q-31 62 -86 33q-68 -41 -81 -225zM83 695q31 31 62 54q13 10 22 -4q6 -11 -4 -18q-31 -23 -60 -52q-10 -10 -20 0t0 20z" />
<glyph unicode="&#xd4;" horiz-adv-x="325" d="M1 291q0 43 2 67q0 37 6 67l6 32q12 65 61 124q26 28 61.5 38.5t71.5 -9.5t51 -78q14 -49 14 -94q5 -71 -6 -219.5t-45 -187.5q-27 -32 -60.5 -35.5t-63.5 18.5q-53 38 -78 106q-24 69 -20 171zM29 289q-3 -95 20 -159q21 -62 67 -92q46 -33 85 11q49 58 49 315 q4 233 -90 229q-35 -2 -62 -32q-27 -31 -35 -52q-17 -38 -20 -58l-6 -30q-5 -25 -5 -64q-3 -21 -3 -68zM68 665q1 2 4 7q24 47 35 61t27 14q4 0 7.5 -1t8 -3.5t7 -4t7.5 -5.5t7 -5.5t8.5 -7.5t8.5 -8l27 -24q4 -3 5 -8t-1 -8.5t-5 -6.5t-8 -2.5t-9 3.5l-28 24q-17 14 -26 23 q-3 2 -7.5 0.5t-7.5 -3.5l-4 -3q-7 -9 -30 -56q-7 -12 -19.5 -5.5t-6.5 19.5z" />
<glyph unicode="&#xd5;" horiz-adv-x="346" d="M14 251q-7 157 33 254q16 38 42.5 67.5t55.5 40.5q77 30 127 -62q14 -27 18 -62q9 -81 9 -103q0 -121 -7 -188q-13 -141 -61 -174q-26 -17 -77 -6q-67 15 -101.5 79.5t-38.5 153.5zM42 253q4 -80 34 -137.5t84 -69.5q39 -9 56 2.5t30 53.5q24 84 25 256v48q0 40 -12 96 q-4 17 -13 35q-20 39 -46 50t-50 -2t-44 -37t-33 -55q-38 -94 -31 -240zM55 653q22 42 47.5 53t54.5 -1q27 -11 39 -9.5t24 20.5q5 8 13.5 6.5t11.5 -8t-1 -14.5q-19 -30 -42 -33.5t-54 11.5q-20 9 -35.5 2t-31.5 -39q-4 -8 -12 -8t-13 6t-1 14z" />
<glyph unicode="&#xd6;" horiz-adv-x="331" d="M0 277q0 86 17 166.5t46 127.5q38 55 81 54t81 -49q50 -66 58 -183q10 -80 -8 -214q-6 -44 -14 -78t-22 -63t-32.5 -43.5t-45.5 -13.5t-60 22q-99 62 -101 274zM29 277q0 -92 22.5 -158t65.5 -92q41 -23 63 -14t39 53q18 44 29 125t8 165q-14 163 -54 203 q-23 23 -41.5 32t-37.5 1t-36 -37q-26 -41 -42.5 -118.5t-15.5 -159.5zM106 704q0 6 4 10t10 4q4 0 7 -2t5 -5t2 -7q0 -6 -4 -10t-10 -4t-10 4t-4 10zM171 708q0 6 4 10t10 4q4 0 7 -2t5 -5t2 -7q0 -6 -4 -10t-10 -4t-10 4t-4 10z" />
<glyph unicode="&#xd7;" horiz-adv-x="271" d="M40 230l53 70q10 15 -1 29q-39 39 -51 48q-7 5 -5.5 13t8.5 11t15 -2q20 -16 48 -44q13 -13 16 -12q5 4 12 13l34 46q9 11 20.5 2.5t3.5 -20.5l-42 -54q-10 -14 -8 -17q52 -64 77 -87q10 -10 0.5 -20.5t-20.5 -1.5q-33 30 -62 70q-8 11 -11 13t-6.5 0t-11.5 -13l-47 -62 q-5 -7 -13 -5.5t-11 8.5t2 15z" />
<glyph unicode="&#xd8;" horiz-adv-x="323" d="M3 341q12 178 67 245q52 64 118 12q27 -24 41.5 -43t25.5 -55l6 -25q16 -65 9.5 -212.5t-31.5 -199.5q-43 -91 -112 -74q-60 17 -97 98q-39 85 -27 254zM32 220q0 -11 1 -17t2 -9t4.5 -0.5t7 6.5t10.5 13q5 6 15.5 18t14.5 17q42 48 73 92l34 48q36 46 35 54 q-4 40 -8 54.5t-17 37.5q-15 26 -35 42t-38 15q-19 0 -39 -23q-48 -61 -60 -229q-2 -43 0 -119zM46 128q13 -50 46 -84q32 -35 65 -27.5t56 58.5q35 74 35 291q0 14 -4.5 18.5t-10.5 1.5t-12 -11q-13 -16 -38 -52q-33 -47 -67 -85q-46 -51 -67 -84q-7 -13 -3 -26z" />
<glyph unicode="&#xd9;" horiz-adv-x="270" d="M21 595q6 15 21 9q12 -6 7 -17q-17 -54 -10.5 -223.5t25.5 -234.5q4 -14 17.5 -36.5t28.5 -37.5q27 -26 45 -21t24 37q6 22 9 60q7 59 7 167q0 26 -3 150t-3 145q0 6 4 10t10 4t10 -4t4 -10q0 -22 3 -145.5t3 -149.5q0 -106 -6 -170q-8 -83 -28 -106q-24 -23 -48.5 -18.5 t-47 27.5t-37.5 47.5t-20 42.5q-19 69 -25.5 241.5t10.5 232.5zM77 695q-6 7 -3 14.5t10 9t13 -3.5q1 -1 7.5 -8t14 -15t14.5 -16t10 -10q7 -6 5 -14t-9 -10.5t-14 2.5q-17 15 -26 26q-21 24 -22 25z" />
<glyph unicode="&#xda;" horiz-adv-x="266" d="M9 508q5 75 13 92q4 8 12 8.5t13 -6t1 -14.5q-7 -18 -10 -82q-5 -56 -1.5 -201t16.5 -186q13 -45 34 -72.5t44 -21.5t33 35t20 100q7 60 7 132q-10 145 -7 236q0 16 0.5 34.5t1 29t0.5 15.5q0 14 14 14t14 -14q0 -38 -1 -79q-2 -73 3 -159q8 -203 -19 -299 q-18 -63 -60.5 -74t-77.5 40q-21 33 -34 75q-13 45 -17 192.5t1 204.5zM84 665q24 33 77 76q7 6 14.5 2.5t8.5 -11t-5 -13.5q-53 -44 -71 -70q-6 -8 -14 -6.5t-11 8t1 14.5z" />
<glyph unicode="&#xdb;" horiz-adv-x="272" d="M17 600q0 6 5 10t11 4q5 -1 9 -6t3 -10q-1 -11 1 -51.5t2 -42.5v-73q-3 -197 25 -305q13 -51 33 -81.5t43 -22.5q8 2 14 14q3 6 5.5 13.5t4.5 18t3 18t3 22t3 20.5q0 2 0.5 4t0.5 4q0 1 2 19q8 68 9 189q0 75 1 88q0 6 1 40.5t1 40.5q0 43 -4 75q-1 9 5.5 13.5t14 2 t8.5 -11.5q5 -31 5 -79t-3 -81q0 -144 -3 -204q-2 -33 -8 -89q0 -7 -3 -31q-3 -23 -5.5 -37.5t-8 -32t-14.5 -28.5t-22 -16q-23 -7 -42 1t-33 28.5t-23 43.5t-16 51q-28 110 -25 314v72q0 2 -2 43.5t-1 52.5zM76 646q-9 1 -11 10.5t1 21.5t6.5 22t5.5 13q24 32 65 -9l27 -32 q6 -7 2.5 -14.5t-11 -8.5t-13.5 5q-17 21 -26 30q-13 13 -18 14q-6 0 -12 -40q-2 -14 -16 -12z" />
<glyph unicode="&#xdc;" horiz-adv-x="264" d="M17 595q0 6 4.5 10t10.5 4q4 0 7 -2.5t4.5 -6t1.5 -7.5q-22 -252 17 -435q11 -49 24 -79q20 -48 41 -50q11 0 18 10q10 10 18 34q10 29 16 79q14 137 8 286q-1 53 -6 149q-1 6 3 10.5t10 5.5q6 0 10.5 -4t4.5 -10q5 -98 7 -157.5t0.5 -136t-9.5 -147.5q-2 -26 -7.5 -50 t-14.5 -48t-24.5 -37.5t-35.5 -11.5q-59 2 -91 151q-40 181 -17 443zM67 693q0 6 4 10t10 4t10 -4t4 -10t-4 -10t-10 -4t-10 4t-4 10zM128 697q0 6 4 10t10 4q4 0 7 -2t5 -5t2 -7q0 -6 -4 -10t-10 -4t-10 4t-4 10z" />
<glyph unicode="&#xdd;" horiz-adv-x="293" d="M0 575q-5 8 -1 15t11.5 7.5t13.5 -6.5q29 -41 76 -128q30 -59 50 -90q7 -10 11.5 -14t7.5 -1.5t4.5 6t3.5 10.5q1 3 1 4q40 138 40 205q0 6 4 10t10 4t10 -4t4 -10q0 -40 -14 -110q-4 -24 -17 -67l-19 -63q-13 -49 -65 -189q-17 -48 -17 -49q-2 -6 -15 -35t-20 -49 t-9 -35q-2 -14 -16 -12q-7 1 -10 7t-1 17.5t4 20.5t8.5 24t8.5 20t7 16q24 55 82 220q1 6 0.5 10.5t-1.5 8.5l-2 3q-32 45 -76 128q-48 90 -74 126zM132 643q7 27 29 58q1 1 11 18q5 8 13.5 6.5t11.5 -8t-1 -14.5q-7 -9 -18 -27l-7 -12q-3 -6 -7 -16q-1 -2 -2 -5.5t-1.5 -5 t-2.5 -4.5t-3.5 -4t-4.5 -2t-7 -1q-6 1 -9 6t-2 11z" />
<glyph unicode="&#xde;" horiz-adv-x="329" d="M25 577q-1 9 5.5 13.5t14 2t8.5 -11.5q10 -74 14 -154q2 -21 22 -18q47 8 85.5 9t67 -19.5t37.5 -65.5q4 -19 2 -32.5t-13 -27.5q-26 -32 -88 -51q-6 -2 -44.5 -12t-46.5 -13q-5 -2 -10 0q-2 1 -3.5 0t-2 -3.5t-1 -6t-0.5 -9.5q3 -94 9 -158q1 -6 -3 -10.5t-10 -4.5 q-6 -1 -10.5 3t-4.5 10q-8 79 -11 281q-3 173 -17 278zM70 358q0 -37 1 -58q0 -19 1 -38v-22q0 -13 1 -15t6 0q12 4 35.5 10t40.5 10.5t36 11.5t33 15.5t22 18.5q6 8 7 14.5t-2 21.5q-7 34 -29 49t-55.5 13.5t-78.5 -9.5q-19 -4 -18 -22z" />
<glyph unicode="&#xdf;" horiz-adv-x="364" d="M5 363q0 22 1 46q4 51 29 99t68.5 76.5t91.5 19.5q28 -5 49 -22.5t32.5 -44t11.5 -59.5q0 -27 -11 -54q-19 -42 -52 -69q-16 -13 2 -23q78 -42 90 -150q8 -76 -32.5 -120t-130.5 -65q-15 -2 -17 11q-2 15 11 17q80 18 113.5 54.5t26.5 99.5q-6 60 -42 101q-14 19 -43 32 q-11 4 -24 1q-37 -12 -53 5q-6 7 -2.5 15t10.5 10l12 4q17 4 29 9q23 12 45 34.5t31 45.5q20 41 0.5 86.5t-62.5 53.5q-57 9 -103 -45t-52 -124v-43q0 -5 3 -46t3 -45q11 -181 11 -276q0 -14 -14 -14t-14 14q0 93 -11 274q-7 77 -7 92z" />
<glyph unicode="&#xe0;" horiz-adv-x="290" d="M9 8q3 52 6 150q5 218 25 330q10 48 37 93q20 33 43 36.5t46 -33.5q19 -36 22.5 -80t2.5 -183v-52q-1 -117 8.5 -177.5t37.5 -77.5q8 -5 6.5 -13.5t-8 -11.5t-14.5 1q-37 23 -48.5 89.5t-9.5 189.5v23q0 7 -2.5 12t-4.5 7l-2 2q-47 0 -84 5q-21 2 -22 -18 q-2 -29 -5.5 -146.5t-5.5 -147.5q0 -6 -4.5 -10t-10.5 -3q-6 0 -10 4.5t-3 10.5zM53 349h1q33 -8 107 -9q3 0 3 22q0 162 -24 208q-6 13 -12 16.5t-12 -1.5t-15 -19q-24 -39 -33 -84q-2 -13 -10 -73t-5 -60zM88 713q-5 7 -1 14.5t11 8t14 -6.5q18 -24 48 -43q8 -4 7.5 -12.5 t-7 -12t-14.5 0.5q-37 22 -58 51z" />
<glyph unicode="&#xe1;" d="M7 111q1 15 2 25t1.5 19.5t1 19.5t0.5 17.5v23v27v38v47.5q0 106 9 176q6 49 37 86q20 23 43.5 26t50.5 -19q13 -13 22.5 -32.5t15.5 -43t9.5 -57t5 -68.5t1.5 -82v-23q0 -103 1 -142.5t5.5 -74.5t15.5 -60q4 -9 -1.5 -15t-13.5 -5.5t-11 8.5q-17 41 -21 94.5t-4 201.5 q0 11 -4 15t-17 3q-50 -6 -94 -1q-12 1 -16.5 -3.5t-4.5 -15.5q0 -101 -2 -143q0 -12 -3 -45q-6 -64 4 -97q2 -13 -10.5 -17t-17.5 9q-11 41 -5 108zM41 366q0 -13 4 -16.5t14 -5.5q44 -3 93 1q9 1 14 2.5t7.5 5t3 6.5t0.5 8q-3 171 -45 208q-27 26 -52 -4q-27 -31 -31 -71 q-8 -74 -8 -134zM70 691q2 1 4 3l4 4t4.5 4t5.5 4.5t6 4.5l29 23q13 11 24 21q11 9 20.5 -1.5t-0.5 -20.5q-7 -7 -25 -21q-31 -25 -54 -43q-7 -6 -14.5 -2.5t-8.5 11t5 13.5z" />
<glyph unicode="&#xe2;" horiz-adv-x="271" d="M10 109q2 28 7.5 138.5t9.5 150.5q15 127 41 174q15 31 37 37.5t51 -17.5q25 -23 32 -80.5t7 -185.5q0 -98 2 -148t8 -88t18 -65q4 -8 -1 -14.5t-13 -6t-12 8.5q-19 40 -25 102.5t-6 178.5q0 20 -20 20q-43 0 -77 1q-20 0 -22 -20q-1 -38 -5 -142q0 -8 -3.5 -47.5 t-3.5 -45.5q0 -16 4 -44q2 -15 -11 -17q-15 -2 -17 11q-6 53 -1 99zM52 364q-2 -21 20 -21q72 0 87 1q7 0 7 20q-1 94 -7 143t-23 65q-14 12 -23.5 9t-19.5 -22q-27 -54 -41 -195zM58 697q21 40 40.5 47.5t48.5 -15.5l28 -29q9 -11 -1.5 -20.5t-20.5 0.5q-3 3 -7 7.5t-6 6.5 q-1 1 -4 5.5t-5.5 7t-7.5 6.5t-9 4t-10 -2q-10 -8 -20 -30q-4 -8 -12 -8t-13 6t-1 14z" />
<glyph unicode="&#xe3;" horiz-adv-x="275" d="M-2 14q6 60 9 227q3 138 14 229q19 151 92 146q74 -4 83 -155q3 -37 5 -145q0 -196 27 -309q2 -15 -10 -17q-16 -2 -18 11q-23 95 -26 212q0 9 -0.5 22.5t-1 34.5t-0.5 38q0 21 -20 21q-72 -2 -101 -15q-13 -5 -15 -23v-51q-5 -171 -10 -228q0 -6 -4.5 -10t-10.5 -3 q-6 0 -10 4.5t-3 10.5zM19 663q31 74 92 35q15 -10 19.5 -11.5t9.5 3.5t11 23q5 13 18.5 8.5t9.5 -18.5q-15 -40 -36 -45t-47 15q-17 14 -28 10t-23 -32q-4 -8 -12 -8.5t-13 6t-1 14.5zM40 364q-1 -17 4.5 -19t16.5 2q29 7 76 10q11 0 15.5 0.5t10 2.5t7 6.5t1.5 11.5 q-7 131 -18 162q-16 46 -42.5 47.5t-43.5 -42.5q-15 -38 -27 -181z" />
<glyph unicode="&#xe4;" horiz-adv-x="270" d="M-7 19q12 37 13 101q0 34 1.5 77t2.5 68q2 139 15 212q8 54 38 97.5t71 29.5q32 -12 46 -71q3 -15 6 -43q3 -32 4 -34q6 -32 6 -102q0 -50 -3 -122q-1 -145 28 -196q5 -8 0.5 -15t-12 -6.5t-12.5 7.5q-34 54 -32 211q0 18 1 28v47q0 13 -20 13q-66 -1 -104 -6 q-2 -12 -3 -21q-3 -121 -4 -127q0 -73 -4 -107q-3 -29 -10 -49q-3 -9 -11.5 -10t-14 5t-2.5 13zM42 366q-1 -14 4 -17.5t16 -2.5q7 1 77 3q11 0 15.5 0.5t8.5 5t4 14.5q0 28 -9 118q-10 81 -34 89q-22 8 -43 -27t-28 -76q-8 -51 -11 -107zM73 693q0 14 14 14t14 -14t-14 -14 t-14 14zM134 699q0 14 14 14t14 -14t-14 -14t-14 14z" />
<glyph unicode="&#xe5;" horiz-adv-x="300" d="M1 2q0 26 5 81q7 55 12.5 157t8.5 145q3 46 5.5 70.5t13.5 62.5t30 64q21 29 47 32.5t55 -24.5q33 -33 38.5 -99.5t-3.5 -179.5q0 -8 -2 -37.5t-2 -36.5t-1 -28.5t-0.5 -30t1.5 -24t3 -28t5 -25.5q11 -48 33 -76q6 -7 2.5 -14.5t-11 -8.5t-13.5 5q-26 32 -38.5 85 t-10.5 109q1 33 5 112v9q-1 -1 -5 -1q-29 0 -65.5 -0.5t-43.5 -0.5q-19 -1 -20 -20q-2 -30 -4 -71.5t-4.5 -74t-6.5 -74.5q-6 -48 -6 -78q0 -14 -14 -14t-14 14zM55 369q-1 -15 3 -18t16 -2h105h4t2.5 2t1.5 6v13q6 70 0 123t-29 77q-19 17 -31.5 15.5t-27.5 -20.5 q-23 -31 -32 -76.5t-12 -119.5zM100 709v2q0 18 6 32t16 22.5t23 10.5q20 2 36 -11t20 -36q3 -18 -3.5 -33t-19.5 -23t-29 -9q-20 -1 -34.5 11.5t-14.5 33.5zM129 710q2 -18 18 -18q13 1 20.5 10t5.5 23q-4 19 -19.5 21.5t-21.5 -15.5q-3 -13 -3 -20v-1z" />
<glyph unicode="&#xe6;" horiz-adv-x="421" d="M-7 256q3 5 6.5 11.5t5.5 9t4 6t4 6t3.5 5t6 6.5t7 6.5t10.5 9.5q31 28 75 28q35 0 55 -23q12 -13 24 -2q21 18 51.5 29t63 8.5t50.5 -24.5q15 -20 15.5 -47t-12.5 -53t-34 -47t-51.5 -31t-61.5 -4q-23 5 -23 -17q-7 -93 10 -114q10 -14 42.5 -11.5t53.5 20.5 q20 19 35 54q3 9 11 10t13.5 -5.5t1.5 -14.5q-35 -88 -115 -93q-46 -4 -66 22q0 8 -14 -1q-5 -3 -7 -4q-38 -24 -80 -14.5t-51 50.5q-10 39 8.5 87t51.5 73q40 31 79 5q1 0 1 -1q2 63 -9 91.5t-42 28.5q-39 0 -73 -37q-3 -3 -11 -17.5t-16 -22t-16 -3.5q-13 7 -6 20zM62 109 q-16 -40 -8.5 -69t36.5 -32q40 -3 71 28q1 1 2 1q-2 43 -2 50q0 20 4 80q-3 1 -6.5 2.5t-6 2.5l-2.5 1h-1q-21 14 -46.5 -5t-40.5 -59zM193 255q3 -29 2 -62q0 -9 16 -13q43 -11 78 10t50 60q16 44 -5 66t-76 5q-48 -14 -61 -45q-5 -9 -4 -21z" />
<glyph unicode="&#xe7;" d="M-6 417q4 34 25 84t47 84q24 31 49 41.5t50 -4t44 -55.5q12 -26 15.5 -41t0.5 -37q0 -6 -5 -10t-10 -3q-6 0 -10 5t-3 10q3 26 -14 64q-23 47 -47 47q-20 0 -46 -32.5t-45 -80.5q-28 -69 -28 -184q-2 -130 42 -213q10 -20 34.5 -43.5t46.5 -27.5h4q11 0 16 3q6 4 11 11 q13 18 31 93q2 13 18 11q12 -2 10 -17q-20 -81 -36 -103q-12 -18 -28 -24q-17 -7 -22 -16l-7 -11q-6 -15 14 -22q22 -6 34 -15q20 -14 15 -40t-38 -35q-10 -3 -45 -5q-6 -1 -10.5 3t-4.5 10q-1 6 3 10.5t10 4.5q44 3 52 10q3 3 3 8t-2 9l-1 3q-10 8 -48 14l-10 2q-1 0 -3 1 q-8 0 -10.5 10.5t2.5 18.5q1 4 6 12.5t7.5 14t1 13t-9.5 12.5q-3 2 -8.5 6t-7.5 5q-38 30 -57.5 67.5t-30.5 101.5q-19 100 -5 230z" />
<glyph unicode="&#xe8;" horiz-adv-x="267" d="M12 477q0 97 1 104q1 14 7 22t15.5 11t27.5 3q81 0 139 -9q5 -1 8 -4t3.5 -7.5t-1 -8.5t-5.5 -6.5t-9 -1.5q-51 8 -134 8q-8 0 -13 -1q-3 0 -5 -3t-3 -5l-1 -3q-4 -21 -2 -74v-25q0 -36 5 -104q1 -11 5.5 -15t15.5 -4h43q6 0 10 -4t4 -10t-4 -10t-10 -4h-39h-3 q-7 0 -10 -0.5t-5 -2.5t-2 -6q9 -90 9 -162q0 -5 -1 -35t-1 -37v-40q0 -11 1 -14v-1q1 0 1 -1q1 0 3.5 -0.5t5.5 -1t6 -0.5q22 -2 47 -2q8 0 43.5 1t41.5 1t10 -4t4 -10t-4 -10t-10 -4q-7 0 -42 -1.5t-43 -1.5h-11h-11h-10t-10 0.5t-9 1t-9.5 1.5t-8 2t-7.5 3l-6 4t-5 5 q-4 7 -6 31v42q3 63 3 71q0 22 -9.5 157.5t-9.5 164.5zM51 724q-11 9 -2.5 20.5t20.5 3.5q2 -2 20 -16l21 -16q12 -10 41 -23q9 -3 10 -11t-5.5 -13.5t-14.5 -1.5q-28 11 -47 26q-9 5 -22 17q-17 12 -21 14z" />
<glyph unicode="&#xe9;" horiz-adv-x="270" d="M12 527v12v12.5v10.5t0.5 11t1.5 9.5t2.5 9.5t3.5 7q6 8 39 14q54 2 110 2q33 -2 39 0q6 0 10.5 -4t5.5 -10q0 -3 -1 -5.5t-3 -4.5t-4.5 -3.5t-5.5 -1.5q-6 -1 -40 0h-55q-27 0 -53 -2q-2 0 -5 -0.5t-4 -0.5l-9 -2q-2 -4 -2 -15q-1 -9 -1 -38q0 -25 1 -41v-29 q0 -11 1 -41.5t1 -49.5q0 -14 4.5 -17.5t14.5 -3.5q4 0 11.5 0.5t12 0.5t9.5 -1t7.5 -4t3.5 -8q0 -15 -14 -15q-9 -1 -27 -1q-8 0 -11.5 -1t-6 -5.5t-2.5 -13.5v-21q3 -117 -1 -182q0 -3 -3 -39v-9q0 -20 3 -23q2 0 6.5 -1.5t6.5 -1.5q15 -3 41 -3q12 0 39.5 2t38.5 2 q14 2 16 -13q0 -16 -26 -16q-36 -4 -68 -4q-71 0 -81 23q-6 10 -4 45q0 4 1.5 20t1.5 20q3 62 1 180q-4 135 -4 181q0 5 -1 33.5t-1 35.5zM73 694q2 1 15 10l14 12q28 19 48 27q15 7 20 -9q4 -12 -8 -17q-18 -7 -30 -16q-3 -3 -19 -14t-22 -17q-12 -8 -20.5 3.5t2.5 20.5z " />
<glyph unicode="&#xea;" horiz-adv-x="264" d="M12 550q0 30 8 40t33 16q41 6 151 1q6 0 10 -4.5t4 -10.5q-1 -6 -5.5 -10t-10.5 -3q-88 2 -92 2q-37 -2 -52 -4q-2 0 -4 -0.5t-4 -0.5q-6 -1 -7.5 -5t-1.5 -15v-5q0 -16 5 -59.5t5 -57.5q2 -42 2 -68q0 -20 1 -20h77q6 0 10 -4t4 -10t-4 -10t-10 -4h-58q-20 0 -20 -20 q0 -18 -1 -74t-1 -69v-15q0 -22 -2 -54v-40q0 -10 1 -13q4 -2 16 -4q12 -3 45 -5q34 -2 82 -2q14 0 14 -14t-14 -14q-95 0 -132 6q-21 4 -30.5 9.5t-9.5 20.5l-1 15q0 28 2 70q0 19 1 26v14q0 50 1 88v102q0 52 -1 75q0 4 -0.5 12t-0.5 12q0 1 -0.5 3t-0.5 4q-9 72 -9 99z M29 672l36 49q16 21 29 21t27 -21q23 -36 30 -43q8 -12 -3.5 -20.5t-20.5 2.5q-8 14 -20 30q-4 5 -8.5 8.5t-7.5 4.5l-3 1l-37 -50q-5 -7 -13 -5.5t-11 8.5t2 15z" />
<glyph unicode="&#xeb;" horiz-adv-x="264" d="M19 45q0 1 0.5 5t0.5 6v69q1 7 1.5 23.5t0.5 24.5q0 33 1 44v21q0 2 -0.5 11t-1 27t-0.5 37q-7 150 -1 227q3 58 18 67q21 8 87 3.5t83 -10.5q13 -5 8.5 -18.5t-18.5 -9.5q-13 5 -57 8.5t-66 2.5h-7q-15 1 -15 -5q0 -1 -1 -6l-2 -10q0 -5 -2 -23v-168q0 -13 5 -17t16 -2 q5 1 16.5 2.5t18.5 2.5q9 1 13.5 -5.5t2 -14t-11.5 -8.5q-9 -2 -22 -3.5t-18 -2.5q-7 -1 -10.5 -2t-6 -6t-2.5 -14q0 -17 0.5 -32t0.5 -23l1 -8v-21q0 -24 -1.5 -81.5t-1.5 -79.5v-3q0 -6 3.5 -11t7.5 -8l4 -2q72 -3 130 3q3 0 6 -0.5t5 -2t4 -4t2 -5.5q0 -6 -3.5 -11 t-9.5 -5q-58 -7 -136 -4q-28 2 -37 12l-3 7q-1 1 -1 4q0 2 -0.5 8.5t-0.5 10.5zM51 693q0 14 14 14t14 -14t-14 -14t-14 14zM131 697q0 14 14 14t14 -14t-14 -14t-14 14z" />
<glyph unicode="&#xec;" horiz-adv-x="259" d="M-4 585q-1 6 3 10.5t10 4.5q35 4 96 4q34 -2 94 -2q14 0 14 -14t-14 -14q-28 0 -78 1l-2 -18q-8 -69 -5 -126q2 -62 2 -65q0 -31 -2.5 -163.5t-2.5 -161.5v-3v-2.5t0.5 -2t2 -1.5t4 -0.5t6 -0.5h9.5l35 2q14 2 16 -13q0 -15 -14 -15q-122 -6 -154 -6q-14 0 -14 14t14 14 q30 0 47 1q10 0 15 3.5t5 6.5v3q0 29 2.5 161.5t2.5 163.5q0 1 -2 63q-2 33 -0.5 57.5t3.5 48t2 25.5v6q2 3 0.5 4.5t-1 2.5t-2.5 1.5t-5 0.5h-8h-4q-35 0 -60 -3q-6 -1 -10.5 3t-4.5 10zM59 691q-7 5 -5.5 13t8.5 11t15 -2l15 -12q3 -2 6.5 -4t6.5 -4l18 -9 q12 -7 5.5 -19.5t-19.5 -6.5l-17 10q-8 4 -18 11z" />
<glyph unicode="&#xed;" horiz-adv-x="212" d="M-10 8q0 12 17 13t29 -2q22 0 20 21q-3 112 -3 172q0 33 2.5 180t2.5 187q0 18 -21 20h-24q-6 0 -10 4t-4 10t4 10t10 4h70q34 -2 66 3q14 2 16 -12q1 -6 -2.5 -10.5t-11.5 -6t-13.5 -2t-17 -1t-14.5 -0.5q-20 0 -20 -20q0 -39 -2 -185.5t-2 -180.5q0 -60 3 -172 q2 -21 21 -20q17 1 44 5q9 1 13.5 -5.5t2 -14t-11.5 -8.5q-74 -11 -151 -4q-6 0 -10 4.5t-3 10.5zM66 707l40 37q11 9 20.5 -1.5t-0.5 -20.5l-40 -37q-11 -9 -20.5 1.5t0.5 20.5z" />
<glyph unicode="&#xee;" horiz-adv-x="273" d="M6 592q-1 6 3 10.5t10 4.5q14 1 191 1q14 0 14 -14t-14 -14h-62q-9 0 -14 -3t-6.5 -11t-2 -12.5t-0.5 -17.5q0 -12 2 -52.5t2 -51.5q2 -43 1 -191q0 -46 -0.5 -91.5t-1 -69t-0.5 -30.5q0 -3 -2 -7q-2 -3 6 -5q7 -1 17 0h62q6 1 10.5 -2.5t5.5 -9.5q0 -15 -14 -15 q-97 -5 -186 0q-6 0 -10 4.5t-3 10.5q0 6 4.5 10t10.5 3h50q7 -1 12.5 2t6.5 6l2 3q0 7 0.5 30.5t1 69t0.5 91.5q1 148 -1 191q-5 53 -4 101q0 4 0.5 13.5t0 13.5t-1.5 9.5t-5.5 8t-11.5 2.5q-41 0 -58 -1q-6 -1 -10.5 3t-4.5 10zM41 675l44 49q18 20 34 14q4 -2 13 -11 l11 -13q17 -20 44 -39q8 -6 6.5 -14t-8 -11t-14.5 1q-29 21 -50 44l-11 13l-4 -4l-45 -49q-6 -6 -13.5 -4t-9.5 9t3 15z" />
<glyph unicode="&#xef;" horiz-adv-x="254" d="M0 594q0 6 4 10t10 4q110 0 178 3q6 1 10.5 -3t5.5 -10q0 -6 -4 -10.5t-10 -4.5q-38 -2 -60 -2q-20 -2 -20 -20q0 -31 2 -142t2 -137v-63q-1 -27 -1 -55q-2 -69 3 -116v-5q0 -1 1 -2t4 -1.5t7 -0.5h9q14 3 29 2t16 -13q0 -15 -14 -15q-34 -3 -157 -3q-14 0 -14 14t14 14 h55q7 0 12.5 2t7.5 4l2 2q-5 57 -4 119q0 9 1 58t1 59q0 26 -2 136.5t-2 141.5q0 20 -20 20h-52q-14 0 -14 14zM23 685q0 6 4 10t10 4t10 -4t4 -10t-4 -10t-10 -4t-10 4t-4 10zM121 693q0 6 4 10t10 4q4 0 7 -2t5 -5t2 -7q0 -6 -4 -10t-10 -4t-10 4t-4 10z" />
<glyph unicode="&#xf0;" horiz-adv-x="305" d="M-2 593q2 13 17 11q38 -7 78 -44q15 -12 28 -1q4 3 30 22q8 5 15 1t7.5 -11.5t-6.5 -13.5q-4 -3 -8.5 -6t-9.5 -6.5t-7 -5.5q-15 -12 -3 -29l2 -2q25 -32 42.5 -61.5t29 -58t18.5 -54.5t14 -60q28 -154 0 -241q-9 -30 -29.5 -51t-46 -28.5t-56 2.5t-56.5 39 q-50 56 -57.5 138t38.5 136q56 62 167 44l-4 23q-27 81 -83 154q-13 18 -28 1q-15 -18 -24 -34q-4 -8 -12.5 -7t-12 7.5t0.5 15.5q12 19 30 40q14 16 -1 29q-33 28 -62 34q-13 2 -11 17zM29 133q7 -73 50 -119.5t92 -28.5q63 19 58 167q-2 56 -12 116l-1.5 7.5t-2 4.5 t-2.5 3t-3.5 2t-4 1t-6.5 0.5t-8 0.5q-86 9 -127.5 -34.5t-32.5 -119.5z" />
<glyph unicode="&#xf1;" horiz-adv-x="259" d="M2 667q26 34 49.5 37.5t51.5 -13.5q19 -10 32 -7q23 5 52 41q6 7 14 5.5t10.5 -8.5t-2.5 -15q-34 -42 -63.5 -50.5t-56.5 8.5q-21 14 -33 11.5t-30 -27.5q-9 -11 -20.5 -2.5t-3.5 20.5zM11 2q0 37 1.5 201t1.5 202v133q0 3 -1 21t-1 28.5t1 17.5l3 6q8 6 16.5 2.5 t8.5 -13.5q0 -6 1 -11v-8q4 -35 9 -52q9 -36 36 -129t50 -168l22 -75q3 -15 9 -39l11 -34q-3 84 -3 122q0 1 -2 56l-2 60q-4 70 -2 114q0 69 5 115q1 28 6 55q1 9 8.5 11.5t14 -2t5.5 -13.5q-9 -65 -9 -113q-4 -86 0 -167q0 -29 3 -91.5t3 -82.5q0 -48 1 -62q0 -2 1 -3v-5 q0 -5 1 -17.5t1 -16.5q0 -23 -5.5 -36.5t-21.5 -10.5q-5 1 -11 7q0 1 -3 7q0 1 -1.5 5.5l-2.5 7.5l-12 40q-19 67 -22 87q-2 13 -68 233q-13 49 -17 50t-4 -29q0 -39 -1.5 -202.5t-1.5 -200.5q0 -14 -14 -14t-14 14z" />
<glyph unicode="&#xf2;" horiz-adv-x="275" d="M-8 304q-8 110 15 188q12 40 35 71.5t51 43.5q35 15 65.5 -2t50.5 -67q3 -7 6.5 -33t3.5 -31q0 -1 1.5 -17t3.5 -42t3 -49q0 -60 1.5 -121.5t-10 -125t-36.5 -96.5q-26 -35 -79 -14q-33 13 -54 37.5t-32.5 66t-16 81.5t-8.5 110zM35 484q-18 -90 -14 -183.5t16 -150.5 q23 -93 78 -115q31 -12 45 6q35 45 39 196v74q0 71 -8 148q-1 4 -3 32.5t-5 36.5q-16 38 -40 53q-38 20 -79 -37q-20 -28 -29 -60zM87 716q-7 6 -5 14t9 10.5t14 -2.5q37 -32 58 -42q12 -7 5.5 -19.5t-19.5 -6.5q-27 15 -62 46z" />
<glyph unicode="&#xf3;" horiz-adv-x="301" d="M-8 282q-6 86 19 183.5t73 131.5q20 14 51 14q63 0 91 -53t28 -134v-3q0 -97 -14 -211q-23 -162 -66 -195q-30 -23 -56.5 -15.5t-47 33t-37.5 67.5q-16 44 -28 98.5t-13 83.5zM20 284q7 -84 45 -185t91 -60q34 23 52 149.5t18 232.5v3q0 70 -22.5 114.5t-68.5 44.5 q-21 0 -35 -10q-39 -28 -61.5 -118t-18.5 -171zM100 689q8 5 39.5 27t37.5 25q8 5 15 1t7.5 -11.5t-6.5 -13.5q-6 -3 -38 -25t-41 -27q-12 -8 -19.5 4.5t5.5 19.5z" />
<glyph unicode="&#xf4;" horiz-adv-x="285" d="M6 96q-12 51 -14 143.5t9 183t31 130.5q16 31 40 45t51 9q24 -4 46.5 -22.5t36.5 -46.5q4 -7 8 -25t7 -34.5t5.5 -33l2.5 -16.5q19 -132 2 -261q-19 -145 -84 -170q-31 -13 -61.5 0.5t-51 40t-28.5 57.5zM34 104q7 -27 24.5 -49t38.5 -30q23 -7 40.5 0t30.5 29.5t21 50 t13 61.5q16 114 1 242l-1 8t-2.5 19.5t-3.5 23.5t-3.5 23.5t-2.5 17.5q-6 18 -10 26q-24 48 -61 53t-61 -40q-28 -55 -36 -210t12 -225zM37 683q20 25 27 34q15 18 26.5 20.5t29.5 -9.5q18 -15 36 -31q10 -10 0.5 -20.5t-20.5 -1.5q-26 24 -33 30q-7 7 -19 -9q-3 -3 -7 -8.5 t-7 -10t-7 -9t-7.5 -7t-8 -2.5t-8.5 4q-11 9 -2 20z" />
<glyph unicode="&#xf5;" horiz-adv-x="319" d="M6 389q15 146 68 196q41 34 77 25.5t65 -51.5q30 -42 48 -117q11 -32 7.5 -130t-20.5 -174q-21 -99 -59 -129q-51 -41 -115 42q-49 66 -66 140.5t-5 197.5zM27 646q13 33 30.5 45.5t34.5 9.5t41 -17q20 -11 26 -9q11 4 22 50q2 13 17 11q13 -2 11 -17q-12 -57 -35 -69 t-55 9q-24 16 -38 12.5t-28 -37.5q-3 -8 -11 -9t-13.5 5.5t-1.5 15.5zM42 187q17 -65 59 -118q26 -35 46 -42q13 -6 27 5q33 26 53.5 136t15.5 214q-1 22 -16.5 78.5t-33.5 82.5q-47 69 -99 20q-44 -39 -59 -170t7 -206z" />
<glyph unicode="&#xf6;" horiz-adv-x="327" d="M-1 294q3 105 29 190t70 116q42 28 79.5 18t63.5 -51q31 -47 34 -102l3 -19q5 -38 0 -124t-18 -154q-20 -94 -51 -137q-45 -60 -108 -31q-52 24 -78 105t-24 189zM28 294q-2 -100 21 -174t64 -94q43 -19 72 22q27 36 45 118t21 187q2 44 1 64l-3 29q-4 62 -31 105 q-47 67 -104 25q-36 -26 -60 -106t-26 -176zM89 704q0 14 14 14t14 -14t-14 -14t-14 14zM181 708q0 14 14 14t14 -14t-14 -14t-14 14z" />
<glyph unicode="&#xf7;" horiz-adv-x="350" d="M4 313q0 6 4 10t10 4q25 0 135.5 4t135.5 4q14 0 14 -14t-14 -14q-25 0 -135.5 -4t-135.5 -4q-14 0 -14 14zM112 432q0 6 4 10t10 4t10 -4t4 -10t-4 -10t-10 -4t-10 4t-4 10zM123 229q0 6 4 10t10 4q4 0 7 -2t5 -5t2 -7q0 -6 -4 -10t-10 -4t-10 4t-4 10z" />
<glyph unicode="&#xf8;" horiz-adv-x="296" d="M-4 340q6 85 25 148.5t54 98.5t82 23q64 -17 80 -90q1 -2 1 -6t1 -6l5 -38l3 -36q0 -34 -1 -52v-25q0 -20 1 -39v-48q0 -46 -5 -94q-15 -116 -76 -165q-37 -31 -75 -16q-52 20 -77 119.5t-18 225.5zM27 214q1 -14 5 -17.5t8.5 0.5t9.5 14q28 58 56 99q17 27 46 83 q30 59 52 85q6 6 6.5 7.5t-0.5 20.5q-5 40 -30.5 62.5t-58.5 12t-56 -56.5q-27 -57 -36.5 -144t-1.5 -166zM39 126q21 -88 62 -105q22 -7 47 12q51 43 65 147q5 35 5 90v169q0 6 -15 -14l-9 -15q-7 -12 -22 -40.5t-26.5 -49t-15.5 -26.5q-47 -70 -75 -137q-16 -29 -16 -31z " />
<glyph unicode="&#xf9;" horiz-adv-x="260" d="M25 606q3 9 11.5 10t14 -4.5t2.5 -13.5q-18 -56 -12 -222l15 -235q3 -52 20 -84.5t49 -31.5q11 0 17.5 5.5t11 22.5t7 33t6.5 53q15 144 15 352q0 4 1 27.5t1.5 42t-0.5 32.5q-1 5 3 10t10 6q6 0 10.5 -4t4.5 -10q2 -30 1 -53q-3 -42 -3 -51q0 -210 -15 -354 q-3 -29 -4 -40.5t-4.5 -32t-7.5 -29t-11 -19t-17 -14.5t-24 -5q-49 -3 -72 38t-27 104q-21 306 -18 374q3 53 15 93zM75 695q-8 4 -8.5 12t6 13t14.5 1q33 -15 65 -31q8 -4 8.5 -12t-6 -13t-14.5 -1l-32 16q-21 10 -33 15z" />
<glyph unicode="&#xfa;" horiz-adv-x="259" d="M20 593q-2 14 13 16q15 0 15 -14q2 -53 4 -215q0 -157 4 -225q4 -73 13.5 -104t37.5 -37q14 -3 25 -0.5t18 12.5t11.5 18t7 26.5t3.5 28.5t3 32q16 295 1 454q-1 5 3 10t10 6q6 0 10.5 -4t4.5 -10q15 -151 -1 -458q-3 -63 -15 -93q-25 -63 -87 -50q-23 5 -37.5 17.5 t-21.5 38t-9.5 47.5t-4.5 64q-5 87 -5 226q0 147 -3 214zM79 664q28 28 60 55q7 6 14.5 2.5t8.5 -11t-5 -13.5q-24 -19 -58 -53q-10 -10 -20 0t0 20z" />
<glyph unicode="&#xfb;" horiz-adv-x="241" d="M18 586q-1 6 2.5 11t9.5 6q6 0 11 -3.5t5 -9.5q5 -40 3 -189q-3 -199 10 -294q3 -27 9.5 -49t20.5 -38.5t33 -13.5q12 2 21 15q20 28 22 76q5 216 -9 485q-2 14 13 16q15 0 15 -14q13 -262 9 -487q-1 -59 -27 -93q-36 -53 -96 -7q-27 20 -40 106q-12 91 -9 299 q0 153 -3 184zM34 673q5 7 14 20t13 19q15 19 29.5 22.5t32.5 -10.5q16 -12 36 -38q6 -7 2.5 -14.5t-11 -8.5t-13.5 5q-14 16 -30 32q-14 6 -23 -5q-3 -6 -26 -38q-5 -8 -13.5 -6.5t-11.5 8t1 14.5z" />
<glyph unicode="&#xfc;" horiz-adv-x="250" d="M15 363q1 17 4.5 71t6 95t2.5 65q0 6 4 10t10 4t10 -4t4 -10q0 -46 -7 -158q-5 -51 -6 -74q-8 -142 11 -227q6 -27 16 -52t23.5 -43t26.5 -18q16 0 25 40q5 25 13 162l7 98q10 130 10 269q0 14 14 14t14 -14q0 -96 -5 -187l-4 -84q-2 -31 -6 -98q-9 -146 -15 -166 q-6 -29 -18.5 -46t-34.5 -16q-34 1 -58.5 42t-35.5 93q-20 92 -11 234zM75 682q0 6 4 10t10 4q4 0 7 -2t5 -5t2 -7q0 -6 -4 -10t-10 -4t-10 4t-4 10zM132 685q0 6 4 10t10 4q4 0 7 -2t5 -5t2 -7q0 -6 -4 -10t-10 -4t-10 4t-4 10z" />
<glyph unicode="&#xfd;" horiz-adv-x="301" d="M-6 595q-4 8 1 15t12.5 7t12.5 -8q17 -31 42 -82q47 -98 82 -146q16 -20 21 -16q13 35 29 122q17 84 33 125q3 9 11 10t13.5 -5.5t1.5 -14.5q-13 -34 -30 -121q-7 -35 -11.5 -56t-10.5 -41.5t-9 -29.5t-13 -37t-16 -46q-37 -108 -56 -181q-14 -56 -20 -95 q-1 -9 -8.5 -11.5t-14 2t-5.5 13.5q5 35 7 43l8 38q4 16 12 45l11 39q13 50 27 82q6 18 15 43l8 23q4 14 -6 27q-44 49 -104 172q-32 66 -43 84zM99 671l44 44q11 9 20.5 -1.5t-0.5 -20.5q-24 -20 -44 -42q-10 -10 -20 0t0 20z" />
<glyph unicode="&#xfe;" horiz-adv-x="342" d="M29 356q4 85 4.5 108t-4.5 106q-2 15 12 17q16 0 16 -13q5 -38 3 -161q-1 -38 5 -39q4 2 11 12q29 39 65 45q43 8 80.5 -26t57.5 -118q38 -157 -9 -228q-26 -39 -65.5 -51t-79.5 8q-25 12 -45 36q-4 5 -10 14q-10 13 -11 7q0 -46 3 -105t3 -71q0 -14 -14 -14t-14 14 q0 49 -7 174q-8 149 -1 285zM56 247q0 -95 25 -143q22 -43 53.5 -60.5t61.5 -8.5t50 41t21 78q0 63 -19 135.5t-48 95.5q-53 39 -97 -11q-39 -50 -46 -117v-3q0 -1 -1 -3v-2v-2z" />
<glyph unicode="&#xff;" horiz-adv-x="279" d="M1 590q-4 8 1 14.5t13 6t12 -8.5q1 -2 91 -176q17 -32 25 -1q7 25 34 94q21 55 27 91q1 9 8.5 11.5t14 -2t5.5 -13.5q-6 -40 -28 -97q-26 -70 -33 -92q-54 -194 -111 -421q-2 -13 -17 -11q-13 2 -11 17l92 354l-1 2q-60 103 -122 232zM71 682q0 14 14 14t14 -14t-14 -14 t-14 14zM132 685q0 14 14 14t14 -14t-14 -14t-14 14z" />
<glyph unicode="&#x2000;" horiz-adv-x="388" />
<glyph unicode="&#x2001;" horiz-adv-x="776" />
<glyph unicode="&#x2002;" horiz-adv-x="388" />
<glyph unicode="&#x2003;" horiz-adv-x="776" />
<glyph unicode="&#x2004;" horiz-adv-x="258" />
<glyph unicode="&#x2005;" horiz-adv-x="194" />
<glyph unicode="&#x2006;" horiz-adv-x="129" />
<glyph unicode="&#x2007;" horiz-adv-x="129" />
<glyph unicode="&#x2008;" horiz-adv-x="97" />
<glyph unicode="&#x2009;" horiz-adv-x="155" />
<glyph unicode="&#x200a;" horiz-adv-x="43" />
<glyph unicode="&#x2010;" horiz-adv-x="326" d="M15 279q58 10 174 5q72 -2 76 -2q14 0 14 -14t-14 -14q-8 0 -78 2q-113 3 -168 -5q-9 -1 -13.5 5.5t-2 14t11.5 8.5z" />
<glyph unicode="&#x2011;" horiz-adv-x="326" d="M15 279q58 10 174 5q72 -2 76 -2q14 0 14 -14t-14 -14q-8 0 -78 2q-113 3 -168 -5q-9 -1 -13.5 5.5t-2 14t11.5 8.5z" />
<glyph unicode="&#x2012;" horiz-adv-x="326" d="M15 279q58 10 174 5q72 -2 76 -2q14 0 14 -14t-14 -14q-8 0 -78 2q-113 3 -168 -5q-9 -1 -13.5 5.5t-2 14t11.5 8.5z" />
<glyph unicode="&#x2013;" horiz-adv-x="334" d="M-25 226q-1 6 3 10.5t10 4.5q13 1 89 8q114 11 197 11q14 0 14 -14t-14 -14q-66 0 -195 -11q-73 -7 -89 -8q-6 -1 -10.5 3t-4.5 10z" />
<glyph unicode="&#x2014;" horiz-adv-x="693" d="M-13 226q-3 13 9 18q66 18 321.5 25t318.5 -8q13 -2 11 -17q-2 -13 -17 -11q-59 14 -311.5 6.5t-314.5 -23.5q-14 -2 -17 10z" />
<glyph unicode="&#x2018;" horiz-adv-x="131" d="M-5 491q21 96 66 133q7 6 14.5 2.5t8.5 -11t-5 -13.5q-36 -30 -56 -117q-2 -13 -17 -11q-13 2 -11 17z" />
<glyph unicode="&#x2019;" horiz-adv-x="112" d="M7 609q-10 10 0 20t20 0q52 -50 35 -152q-1 -9 -8.5 -11.5t-14 2t-5.5 13.5q13 88 -27 128z" />
<glyph unicode="&#x201a;" horiz-adv-x="136" d="M6 47q-9 3 -10 11t5.5 13.5t14.5 1.5q46 -18 67 -63q12 -20 6.5 -45t-27.5 -39q-8 -5 -15 -1t-7.5 11.5t6.5 13.5q15 10 16 25.5t-7 28.5t-19 23q-13 11 -30 20z" />
<glyph unicode="&#x201c;" horiz-adv-x="240" d="M23 450q6 80 47 133q6 7 14 5.5t10.5 -8.5t-2.5 -15q-36 -46 -41 -117q0 -6 -4.5 -10t-10.5 -3q-6 0 -10 4.5t-3 10.5zM104 460l17 44q17 43 47 77q10 10 20.5 0.5t1.5 -20.5q-25 -25 -43 -68q-7 -17 -15 -43q-5 -13 -18.5 -8.5t-9.5 18.5z" />
<glyph unicode="&#x201d;" horiz-adv-x="220" d="M29 532q-6 6 -2.5 13.5t10.5 9t14 -4.5q18 -20 29 -51q0 -1 2 -7t3 -12t1.5 -12.5t-2 -11t-7.5 -5.5q-6 -1 -11.5 2t-6.5 9q-1 3 -2 8q-6 26 -11 36.5t-17 25.5zM103 563q-6 7 -2.5 14.5t11 8.5t13.5 -5q41 -48 48 -139q1 -5 -3 -10t-9 -5q-6 -1 -11 3t-5 10 q-6 47 -14 73.5t-28 49.5z" />
<glyph unicode="&#x201e;" horiz-adv-x="195" d="M16 61q-5 8 -1 15t11.5 7.5t13.5 -6.5q36 -57 16 -131q-5 -13 -17.5 -9t-10.5 17q16 61 -12 107zM107 78q-4 8 1.5 14.5t13.5 5.5t11 -10q27 -70 7 -130q-5 -13 -18.5 -8.5t-9.5 18.5q18 48 -5 110z" />
<glyph unicode="&#x2022;" horiz-adv-x="185" d="M46 302l3 -7q0 1 -4.5 8.5t-5 10t-2.5 9t-1 10.5t4 9.5t9 10.5q10 6 24 13q18 10 38 4t26 -28t-9 -39q-10 -8 -16 -11l9 4q-9 -4 -21 -12q-35 -18 -54 18z" />
<glyph unicode="&#x2026;" horiz-adv-x="353" d="M-1 34q23 10 24 10q3 0 7 -3t6 -5l3 -3q9 -14 -5 -35q-16 -20 -28 -4q-3 3 -7 10t-6.5 16.5t6.5 13.5zM121 -1q-15 33 6 44q14 5 25 6q10 2 20.5 -4t11.5 -16q1 -6 -1.5 -12t-6 -10t-6.5 -8l-4 -4q-15 -12 -27.5 -10.5t-17.5 14.5zM261 19l4.5 4.5l5 5t5 4.5t6 4t6 1.5 t6 -1t5.5 -5.5q3 -5 4 -11t2 -7q1 -2 1 -6q0 -14 -14 -14q-8 0 -15 -1h-9q-6 0 -9.5 10t2.5 16z" />
<glyph unicode="&#x202f;" horiz-adv-x="155" />
<glyph unicode="&#x2039;" horiz-adv-x="179" d="M-10 199q-23 16 9 48q18 20 39 40q63 65 69 72q5 7 13 5.5t11 -8.5t-2 -15q-90 -94 -109 -113q0 -1 -2.5 -3.5t-2.5 -4t2 -4.5q45 -24 81 -36q13 -5 8.5 -18.5t-18.5 -9.5q-45 16 -86 40z" />
<glyph unicode="&#x203a;" horiz-adv-x="202" d="M9 149q20 18 57 56.5t51 61.5q13 13 -11 21l-1 0.5t-2 0.5q-57 16 -87 57q-5 7 -1 14.5t11 8t14 -6.5q13 -17 37.5 -31.5t49.5 -19.5q25 -10 27 -26t-13 -34q-18 -26 -56.5 -67.5t-57.5 -56.5q-7 -6 -14.5 -2.5t-8.5 11t5 13.5z" />
<glyph unicode="&#x205f;" horiz-adv-x="194" />
<glyph unicode="&#x20ac;" horiz-adv-x="306" d="M-88 245q-3 13 9 18q27 7 57 12q19 1 19 21q0 15 1 22q1 9 -2.5 14t-12 5.5t-13.5 0t-17.5 -3t-13.5 -2.5q-9 -1 -14 5.5t-2.5 14t10.5 8.5q17 3 51 7q13 1 16 4.5t4 12.5v2v2q8 64 22 96t41 62q26 28 57.5 40.5t60.5 0.5q52 -23 68 -107q0 -19 7 -45q2 -15 -11 -17 t-16 7t-5 30q-5 30 -9 45.5t-16 34t-30 25.5q-38 18 -85 -34q-23 -24 -34.5 -50.5t-19.5 -81.5q-2 -16 0.5 -19.5t18.5 -2.5h151q14 0 14 -14t-14 -14q-128 0 -156 -1q-9 0 -13.5 -2.5t-5.5 -4.5t-1.5 -9.5t-0.5 -10.5t-0.5 -9t-0.5 -9q0 -12 4.5 -14.5t16.5 -2.5 q52 3 116 2q30 -1 58 -1q14 0 14 -14t-14 -14q-29 0 -60 1q-85 0 -116 -2q-8 -1 -11 -1.5t-5.5 -5.5t-2.5 -15q0 -40 6 -78q10 -53 52 -97q31 -33 57.5 -28.5t38.5 41.5l5 21q1 5 2.5 10.5t2.5 7.5v3q2 13 18 11q12 -2 10 -17q0 -11 -11 -44q-10 -33 -33.5 -51.5 t-56.5 -10.5q-52 16 -92 93q-16 31 -22 58t-6 76q0 15 -4.5 18t-16.5 1q-28 -5 -47 -10q-14 -2 -17 10z" />
<glyph unicode="&#x2122;" horiz-adv-x="354" d="M-28 606q-1 6 3 10.5t10 4.5q5 0 12.5 0.5t20.5 1t23 0.5q46 0 60 1q14 2 16 -13q0 -16 -26 -16h-5q-17 -2 -17 -3q9 -126 3 -196q0 -6 -4.5 -10t-10.5 -3q-6 0 -10 4.5t-3 10.5q3 45 -6 195h-51q-6 -1 -10.5 3t-4.5 10zM130 403q-1 34 6 71l16 77q1 7 7 37q7 17 21 17 q12 0 17 -11l5 -11q2 -4 4 -9.5t3 -8.5t2.5 -5t3 0t3.5 7t4 14q9 26 22 26q4 0 7 -1t5.5 -3.5l4 -4t3.5 -6t2.5 -6.5t2 -6.5t2.5 -6.5q7 -19 15 -57l12 -60q6 -31 9 -38q4 -9 -3 -15.5t-15 -3.5q-8 4 -12 20q-1 3 -2 7.5t-2.5 11.5t-2.5 12l-13 60q-1 3 -2.5 11.5t-2.5 12.5 q-1 5 -3.5 7t-5 1t-3.5 -5q-10 -37 -11 -39q-8 -23 -18 -28q-16 -7 -23 9q0 1 -1 15t-2.5 30t-2.5 22q-1 2 -3 -2q-1 -3 -3 -16q-2 -15 -4 -23l-8 -37q-6 -24 -6 -63q1 -6 -3 -10.5t-10 -4.5q-6 -1 -10.5 3t-4.5 10z" />
<glyph unicode="&#xe000;" horiz-adv-x="610" d="M0 0v610h610v-610h-610z" />
</font>
</defs>
</svg>
